Повесть о настоящем человеке (1948) DVDRip от New-Team

 
Автор Сообщение

sergej644 ®

Пол:

Стаж: 4 года 11 месяцев

Сообщений: 6038

Откуда: Soviet Union



Награды: Нет

Торрент-статистика

Создавать темы 13-Янв-2015 21:00

[Цитировать]

Страна: СССР
Производство: Мосфильм
Жанр: драма, военный
Год выпуска: 1948
Продолжительность: 01:28:42
Перевод: не требуется
Оригинальная аудиодорожка: русский
Cубтитры: нет
Режиссер: Александр Столпер
В ролях: Павел Кадочников, Борис Бабочкин, Сергей Бондарчук, Михаил Глузский, Тамара Макарова, Василий Меркурьев, Александр Михайлов, Николай Охлопков, Евгений Шутов, Любовь Соколова, Людмила Целиковская, Лев Свердлин...
Описание:
В основе драматической истории — реальные факты биографии летчика-истребителя Алексея Мересьева. Сбитый в бою над оккупированной территорией, он три недели пробирался по заснеженным лесам, пока не попал к партизанам. Потеряв обе ноги, герой впоследствии проявляет удивительную силу характера, вновь садится за штурвал самолета и пополняет счет воздушных побед над врагом…- -Исходник: DVD5 R5
Тип релиза: DVDRip
Контейнер: AVI
Видео: 688x512 (4:3), 25 fps, XviD ~ 2086 kbps avg, 0.237 bit/pixel
Аудио: 48 kHz, Dolby AC3 2.0, 256 kbps

MediaInfo

Общее
Полное имя : Povest'.o.nastojashhem.cheloveke.1948.DVDRip_[Youtracker]_by_AVP Studio.avi
Формат : AVI
Формат/Информация : Audio Video Interleave
Размер файла : 1,46 Гбайт
Продолжительность : 1 ч. 28 м.
Общий поток : 2351 Кбит/сек
Программа кодирования : VirtualDubMod 1.5.10.3 | www.virtualdub-fr.org || (build 2550/release)
Библиотека кодирования : VirtualDubMod build 2550/release
Видео
Идентификатор : 0
Формат : MPEG-4 Visual
Профиль формата : Advanced Simple@L5
Параметр BVOP формата : 1
Параметр QPel формата : Нет
Параметр GMC формата : Без точки перехода
Параметр матрицы формата : Выборочная
Идентификатор кодека : XVID
Идентификатор кодека/Подсказка : XviD
Продолжительность : 1 ч. 28 м.
Битрейт : 2086 Кбит/сек
Ширина : 688 пикселей
Высота : 512 пикселей
Соотношение сторон : 4:3
Частота кадров : 25,000 кадров/сек
Цветовое пространство : YUV
Субдискретизация насыщенности : 4:2:0
Битовая глубина : 8 бит
Тип развёртки : Прогрессивная
Метод сжатия : С потерями
Бит/(Пиксели*Кадры) : 0.237
Размер потока : 1,29 Гбайт (89%)
Библиотека кодирования : XviD 65
Аудио
Идентификатор : 1
Формат : AC-3
Формат/Информация : Audio Coding 3
Расширение режима : CM (complete main)
Идентификатор кодека : 2000
Продолжительность : 1 ч. 28 м.
Вид битрейта : Постоянный
Битрейт : 256 Кбит/сек
Каналы : 2 канала
Расположение каналов : Front: L R
Частота : 48,0 КГц
Битовая глубина : 16 бит
Метод сжатия : С потерями
Размер потока : 162 Мбайт (11%)
Выравнивание : Разделение по промежуткам
Продолжительность промежутка : 40 мс. (1,00 видеокадр)
Время предзагрузки промежутка : 500 мс

Скриншоты

-
[Профиль] [ЛС]

Создавать темы 06-Авг-2015 22:00 (спустя 6 месяцев 24 дня)

Топик был перенесен из форума Кино СССР в форум Кино СССР
sergej644
 
Кто просматривает тему:

Форум Тема Автор Размер
Фильмы (DVD 5/9) Благословите женщину (Станислав Говорухин) [2003, Россия, драма, мелодрама, киноповесть, DVD5] Sub Rus TorrentFilm 4.36 GB
Отечественная Классика Борис Полевой - Повесть о настоящем человеке (2015) MP3 Swager 660 MB
Кино СССР Два капитана / 6 серии из 6 (Евгений Карелов) [1976, СССР, киноповесть, экранизация, SATRip-AVC] E.S.P. 4.2 GB
Фантастика и фэнтези Джо Аберкромби - Первый Закон 2. Прежде чем их повесят (2016) MP3 Swager 800 MB
Боевики, детективы, триллеры Джон Гришэм - Повестка (2016) MP3 Swager 450 MB
Отечественная Классика Мельников Павел (Печерский Андрей) - Повести и рассказы [Репина Светлана, 2011] Magnat 627 MB
Мировая классика Неизвестный автор - Повесть о прекрасной Отикубо [Лебедева Валерия, 2014] Magnat 972 MB
Фильмы (DVD 5/9) Огни Баку (Александр Зархи, Рза Тахмасиб, Иосиф Хейфиц) [1950, СССР, Киноповесть, DVD5] ~ 2-я цензурированная версия (1968) ~ TorrentFilm 3.21 GB
Показать сообщения:    

Текущее время: Сегодня 12:31

Часовой пояс: GMT



Вы не можете начинать темы
Вы не можете отвечать на сообщения
Вы не можете редактировать свои сообщения
Вы не можете удалять свои сообщения
Вы не можете голосовать в опросах
Вы не можете прикреплять файлы к сообщениям
Вы не можете скачивать файлы