Поверхность / Surface [s01] (2005-2006) HDTVRip 720p от HDClub

 
Автор Сообщение

Russian Mafia ®

Пол:

Стаж: 1 год 8 месяцев

Сообщений: 4257



Награды: 10 (Подробнее)

Top Releaser 3 (Количество: 1) Mega Seeder 4 (Количество: 1) Top Releaser 5 (Количество: 1)
Торрент-статистика

Создавать темы 26-Авг-2016 19:30

[Цитировать]

Информация о фильме
Название: Поверхность
Оригинальное название: Surface
Год выхода: 2005-2006
Жанр: фантастика, драма, приключения
Режиссер: Джеффри Рейнер
В ролях: Лэйк Белл, Джей Р. Фергюсон, Картер Дженкинс, Лейтон Мистер, Йен Энтони Дэйл, Луанна Купер, Рик Рейц, Эдди Хэсселл, Келли Коллинз, Джо Киприано
О фильме:
Океан хранит в себе множество тайн. И к одной из них человечество, возможно, не готово.
Ученый Доктор Лора Дотери в рамках очередного научного исследования погружается в батискафе на большую глубину где-то в Атлантическом океане. Но она не верит своим глазам, когда среди известной доселе глубоководной живности видит нечто необъяснимое и очень больших размеров.
Рич – примерный семьянин, отправляется со своим братом на подводную рыбалку. Однако они не будут готовы к подобному улову. Гигантское существо утаскивает за собой брата Рича.
Майлз – обычный школьник, сын обеспеченных родителей, обнаруживает в местном заливе скопление икры неизвестного происхождения. Он приносит одну икринку, размером со страусиное яйцо и помещает его в аквариум дома. Паренек будет очень удивлен, когда увидит существо, вылупившееся из этой «икринки».
Что это за монстры, внезапно появившиеся в глубинах океанов и морей по всему миру? Они топят корабли, становятся причиной падения самолетов, поедают людей. Это пришельцы? Или динозавры? Лора и Рич готовы пойти на всё, чтобы найти ответы на свои вопросы любой ценой.

Список серий

01: "There's something strange going on in the world's oceans"
02: "The mystery of the ocean is now on land"
03: "Things are heating up under the ocean"
04: "It is time to track these unidentified species"
05: "Who turned out the lights"
06: "Another one bites the dust"
07: "On the run"
08: "Submersible Setback"
09: "Race against time"
10: "Laura and Rich return from plunge to the ocean floor - with no boat in sight"
11: "The story's out"
12: "Fugitives on the run"
13: "Experiment gone awry"
14: "Fears are rising"
15: "Who will be left behind?"

x264

01x01
x264 [info]: frame I:553 Avg QP:14.09 size: 87918
x264 [info]: frame P:15473 Avg QP:16.38 size: 35466
x264 [info]: frame B:45126 Avg QP:17.86 size: 15832
x264 [info]: consecutive B-frames: 2.0% 3.5% 5.4% 67.4% 8.9% 10.6% 1.0% 1.2%
encoded 61152 frames, 8.93 fps, 4290.36 kb/s

MediaInfo

Общее
Уникальный идентификатор : 220259152616203407758673736586619168290 (0xA5B45EA841A9F1679513F8529B16A622)
Полное имя : Surface.S01.2006.720p.HDTV.Rus.Eng.HDCLUBSurface.S01E01.2006.720p.HDTV.Rus.Eng.HDCLUB.mkv
Формат : Matroska
Версия формата : Version 4 / Version 2
Размер файла : 1,39 Гбайт
Продолжительность : 40 м.
Общий поток : 4868 Кбит/сек
Дата кодирования : UTC 2013-12-01 16:59:24
Программа кодирования : mkvmerge v6.5.0 ('Isn't she lovely') built on Oct 20 2013 12:50:05
Библиотека кодирования : libebml v1.3.0 + libmatroska v1.4.1
Видео
Идентификатор : 1
Формат : AVC
Формат/Информация : Advanced Video Codec
Профиль формата : High@L4.1
Параметр CABAC формата : Да
Параметр ReFrames формата : 9 кадров
Идентификатор кодека : V_MPEG4/ISO/AVC
Продолжительность : 40 м.
Битрейт : 4196 Кбит/сек
Ширина : 1280 пикселей
Высота : 720 пикселей
Соотношение сторон : 16:9
Режим частоты кадров : Постоянный
Частота кадров : 25,000 кадров/сек
Цветовое пространство : YUV
Субдискретизация насыщенности : 4:2:0
Битовая глубина : 8 бит
Тип развёртки : Прогрессивная
Бит/(Пиксели*Кадры) : 0.182
Размер потока : 1,19 Гбайт (86%)
Заголовок : Surface. Season 01 Episode 01 "There's something strange going on in the world's oceans"
Библиотека кодирования : x264 core 140 r2377 1ca7bb9
Настройки программы : cabac=1 / ref=9 / deblock=1:-3:-3 / analyse=0x3:0x133 / me=umh / subme=10 / psy=1 / psy_rd=1.10:0.00 / mixed_ref=1 / me_range=32 / chroma_me=1 / trellis=2 / 8x8dct=1 / cqm=0 / deadzone=21,11 / fast_pskip=1 / chroma_qp_offset=-2 / threads=16 / lookahead_threads=2 / sliced_threads=0 / nr=0 / decimate=1 / interlaced=0 / bluray_compat=0 / constrained_intra=0 / bframes=7 / b_pyramid=2 / b_adapt=2 / b_bias=0 / direct=3 / weightb=1 / open_gop=0 / weightp=2 / keyint=250 / keyint_min=23 / scenecut=40 / intra_refresh=0 / rc_lookahead=40 / rc=crf / mbtree=1 / crf=16.0 / qcomp=0.70 / qpmin=0 / qpmax=40 / qpstep=4 / vbv_maxrate=50000 / vbv_bufsize=50000 / crf_max=0.0 / nal_hrd=none / filler=0 / ip_ratio=1.25 / aq=1:0.70
Язык : English
Default : Да
Forced : Нет
Аудио #1
Идентификатор : 2
Формат : AC-3
Формат/Информация : Audio Coding 3
Расширение режима : CM (complete main)
Параметр Endianness формата : Big
Идентификатор кодека : A_AC3
Продолжительность : 40 м.
Вид битрейта : Постоянный
Битрейт : 192 Кбит/сек
Каналы : 2 канала
Расположение каналов : Front: L R
Частота : 48,0 КГц
Битовая глубина : 16 бит
Метод сжатия : С потерями
Размер потока : 56,0 Мбайт (4%)
Заголовок : AC3 2.0 @ 192 kbps - ОРТ
Язык : Russian
Default : Да
Forced : Нет
Аудио #2
Идентификатор : 3
Формат : AC-3
Формат/Информация : Audio Coding 3
Расширение режима : CM (complete main)
Параметр Endianness формата : Big
Идентификатор кодека : A_AC3
Продолжительность : 40 м.
Вид битрейта : Постоянный
Битрейт : 384 Кбит/сек
Каналы : 2 канала
Расположение каналов : Front: L R
Частота : 48,0 КГц
Битовая глубина : 16 бит
Метод сжатия : С потерями
Задержка видео : 32 мс.
Размер потока : 112 Мбайт (8%)
Заголовок : AC3 2.0 @ 384 kbps
Язык : English
Default : Нет
Forced : Нет

Страна: США
Студия: NBC Universal Television
Продолжительность: 15 х ~ 00:41:00
Перевод: Профессиональный (многоголосый закадровый) ОРТ
Файл
Кодек: x264
Качество: HDTVRip 720p
Видео: 1280x720 at 25.000 fps, x264@L4.1, crf, ~4290 kbps avg
Звук:
Аудио 1: Russian: 48 kHz, AC3, 2/0 (L,R) ch, ~192.00 kbps avg |Многоголосый закадровый, ОРТ|
Аудио 2: English: 48 kHz, AC3, 2/0 (L,R) ch, ~384.00 kbps avg

Скриншоты


Релиз от: by HPotter
- За звук спасибо Next, Novafilm и всем причастным.
- Был частично удален логотип канала SyFy HD.
- В исходнике немецкая дорога 5.1, английская 2.0.
[Профиль] [ЛС]
Показать сообщения:    

Текущее время: Сегодня 22:22

Часовой пояс: GMT



Вы не можете начинать темы
Вы не можете отвечать на сообщения
Вы не можете редактировать свои сообщения
Вы не можете удалять свои сообщения
Вы не можете голосовать в опросах
Вы не можете прикреплять файлы к сообщениям
Вы не можете скачивать файлы