Повелитель иллюзий / Lord of Illusions (1995) BDRip 1080p

 
Автор Сообщение

sergej644 ®

Пол:

Стаж: 4 года 11 месяцев

Сообщений: 6046

Откуда: Soviet Union



Награды: Нет

Торрент-статистика

Создавать темы 12-Дек-2014 16:28

[Цитировать]

--Повелитель иллюзий / Lord of Illusions (1995) BDRip
Информация о фильме
Название: Повелитель иллюзий
Оригинальное название: Lord of Illusions
Год выхода: 1995
Жанр: Ужасы, триллер
Режиссер: Клайв Баркер
В ролях: Скотт Бакула, Кевин Дж. О’Коннор, Фамке Янссен, Винсент Скьявелли, Шила Таузи, Дэниэл фон Барген, Уэйн Грейс, Джозеф Лэтимор, Барбара Патрик, Джордан Мардер
О фильме:
Заурядное дело, которое расследует частный детектив Гарри, приобретает пугающий оборот, когда он сталкивается с тайной, окружающей всемирно знаменитого мага Филипа Свана и его красавицу жену Доротею. Гарри оказывается втянутым в чудовищный водоворот тайн, обмана и невообразимых ужасов. Иллюзия - трюк, но магия реальна...

Страна: США
Студия: Seraphim Films
Продолжительность: 01:48:52
Перевод: Профессиональный двухголосый
Файл
Кодек: h.264
Качество: BDRip 1080p
Видео: MPEG-4, 1920x1040, 9 420 Мбит/с, 23.976 кадр/с
Звук:
Аудио #1: Русский (AC3, 2ch, 256 Кбит/с, 48.0 KHz) Профессиональный (двухголосый закадровый)
Аудио #2: Английский ( AC3, 2ch, 640 Кбит/с, 48.0 KHz) Оригинал

MediaInfo

Unique ID : 199896719128124506444175208733289588810 (0x9662B52CD57E8DAEAC27AF023AF5A84A)
Complete name : Lord.of.Illusions.1995.BDRip.1080p.mkv
Format : Matroska
Format version : Version 2
File size : 7.84 GiB
Duration : 1h 48mn
Overall bit rate : 10.3 Mbps
Movie name : ~V~
Encoded date : UTC 2014-02-25 09:06:24
Writing application : mkvmerge v6.7.0 ('Back to the Ground') 32bit built on Jan 8 2014 15:03:17
Writing library : libebml v1.3.0 + libmatroska v1.4.1
Video
ID : 1
Format : AVC
Format/Info : Advanced Video Codec
Format profile : High@L4.1
Format settings, CABAC : Yes
Format settings, ReFrames : 4 frames
Codec ID : V_MPEG4/ISO/AVC
Duration : 1h 48mn
Bit rate : 9 420 Kbps
Width : 1 920 pixels
Height : 1 040 pixels
Display aspect ratio : 1.85:1
Frame rate mode : Constant
Frame rate : 23.976 fps
Color space : YUV
Chroma subsampling : 4:2:0
Bit depth : 8 bits
Scan type : Progressive
Bits/(Pixel*Frame) : 0.197
Stream size : 7.01 GiB (89%)
Writing library : x264 core 142 r2389 956c8d8
Encoding settings : cabac=1 / ref=4 / deblock=1:-3:-3 / analyse=0x3:0x113 / me=umh / subme=8 / psy=1 / psy_rd=1.00:0.00 / mixed_ref=1 / me_range=16 / chroma_me=1 / trellis=1 / 8x8dct=1 / cqm=0 / deadzone=21,11 / fast_pskip=1 / chroma_qp_offset=-2 / threads=12 / lookahead_threads=2 / sliced_threads=0 / nr=0 / decimate=1 / interlaced=0 / bluray_compat=0 / constrained_intra=0 / bframes=3 / b_pyramid=2 / b_adapt=2 / b_bias=0 / direct=3 / weightb=1 / open_gop=0 / weightp=2 / keyint=240 / keyint_min=24 / scenecut=40 / intra_refresh=0 / rc_lookahead=50 / rc=2pass / mbtree=1 / bitrate=9420 / ratetol=1.0 / qcomp=0.60 / qpmin=0 / qpmax=69 / qpstep=4 / cplxblur=20.0 / qblur=0.5 / ip_ratio=1.40 / aq=1:1.00
Language : English
Default : Yes
Forced : No
Audio #1
ID : 2
Format : AC-3
Format/Info : Audio Coding 3
Mode extension : CM (complete main)
Format settings, Endianness : Big
Codec ID : A_AC3
Duration : 1h 48mn
Bit rate mode : Constant
Bit rate : 256 Kbps
Channel(s) : 2 channels
Channel positions : Front: L R
Sampling rate : 48.0 KHz
Bit depth : 16 bits
Compression mode : Lossy
Stream size : 199 MiB (2%)
Language : Russian
Default : Yes
Forced : No
Audio #2
ID : 3
Format : AC-3
Format/Info : Audio Coding 3
Mode extension : CM (complete main)
Format settings, Endianness : Big
Codec ID : A_AC3
Duration : 1h 48mn
Bit rate mode : Constant
Bit rate : 640 Kbps
Channel(s) : 2 channels
Channel positions : Front: L R
Sampling rate : 48.0 KHz
Bit depth : 16 bits
Compression mode : Lossy
Stream size : 498 MiB (6%)
Language : English
Default : No
Forced : No
Menu
00:00:00.000 : en:00:00:00.000
00:13:44.323 : en:00:13:44.323
00:28:51.188 : en:00:28:51.188
00:43:08.628 : en:00:43:08.628
00:55:24.404 : en:00:55:24.404
01:08:47.623 : en:01:08:47.623
01:21:04.151 : en:01:21:04.151
01:34:33.084 : en:01:34:33.084

Скриншоты

--
[Профиль] [ЛС]
Показать сообщения:    

Текущее время: Сегодня 08:18

Часовой пояс: GMT



Вы не можете начинать темы
Вы не можете отвечать на сообщения
Вы не можете редактировать свои сообщения
Вы не можете удалять свои сообщения
Вы не можете голосовать в опросах
Вы не можете прикреплять файлы к сообщениям
Вы не можете скачивать файлы