Повелитель зверей / BeastMaster [S01] (1999) DVDRip | P

 
Автор Сообщение

BOSS ®

Пол:

Стаж: 2 года 1 месяц

Сообщений: 3735

Откуда: ODESSA



Награды: 20 (Подробнее)

Top Keeper 2 (Количество: 1) Top Seeder 3 (Количество: 1) Mega Releaser 1 (Количество: 1)
Торрент-статистика

Создавать темы 09-Ноя-2015 19:45

[Цитировать]

Информация о фильме
Название: Повелитель зверей
Оригинальное название: BeastMaster
Год выхода: 1999
Жанр: фэнтези, боевик, приключения
Режиссер: Майкл Оффер, Пино Амента, Карл Цвики
В ролях: Джексон Рэйне, Дэниэл Годдар, Стивен Грайвз, Моника Шнарре, Грэхам Бонд, Марджин Холден, Натали Джексон Мендоса, Эмили де Рэвин, Дэвид Патерсон, Дилан Бирк
Описание: В те времена, когда миром правил закон магии и дикой природы, родилась дивная легенда про воина, который понимал язык зверей, боролся с колдунами и темными силами. Его звали Дар — последний из племени. А еще его величали — Повелитель Зверей.

Страна: Австралия, Канада, США
Продолжительность: 22x ~ 45 мин
Перевод: 1. Профессиональный (многоголосый, закадровый) - ТНТ (все серии)
2. Профессиональный (многоголосый, закадровый) - AXN SciFi (только 1, 2, 12 серии)
3. Оригинал (английский)
Файл
Формат: AVI
Качество: DVDRip
Видео: 608x336, (16:9), XviD, ~950 Кбит/сек, 29,970 кадров/сек
Аудио №1: MP3, 128 Кбит/сек, 2 канала, 48,0 КГц - ТНТ
Аудио №2: MP3, 128 Кбит/сек, 2 канала, 48,0 КГц - AXN SciFi
Аудио №3: MP3, 128 Кбит/сек, 2 канала, 48,0 КГц - Оригинал (английский)

Скриншоты:

MediaInfo:

Общее
Полное имя : E:Beastmaster.S01.DVDrip.Rus-EngBeastmaster.S01E01.The.Legend.Continues.DVDrip.Rus.AXN-Rus.TNT-Eng.avi
Формат : AVI
Формат/Информация : Audio Video Interleave
Размер файла : 432 Мбайт
Продолжительность : 43 м.
Общий поток : 1401 Кбит/сек
Программа кодирования : VirtualDubModRus 1.5.10.2 (build 2540/release)
Библиотека кодирования : VirtualDubMod build 2540/release
Видео
Идентификатор : 0
Формат : MPEG-4 Visual
Профиль формата : Advanced Simple@L5
Параметр BVOP формата : 1
Параметр QPel формата : Нет
Параметр GMC формата : Без точки перехода
Параметр матрицы формата : Default (H.263)
Режим смешивания : Сжатый битовый поток
Идентификатор кодека : XVID
Идентификатор кодека/Подсказка : XviD
Продолжительность : 43 м.
Битрейт : 994 Кбит/сек
Ширина : 608 пикселей
Высота : 336 пикселей
Соотношение сторон : 16:9
Частота кадров : 29,970 кадров/сек
Цветовое пространство : YUV
Субдискретизация насыщенности : 4:2:0
Битовая глубина : 8 бит
Тип развёртки : Прогрессивная
Метод сжатия : С потерями
Бит/(Пиксели*Кадры) : 0.162
Размер потока : 306 Мбайт (71%)
Библиотека кодирования : XviD 1.1.0 (UTC 2005-11-22)
Аудио #1
Идентификатор : 1
Формат : MPEG Audio
Версия формата : Version 1
Профиль формата : Layer 3
Режим : Joint stereo
Расширение режима : MS Stereo
Идентификатор кодека : 55
Идентификатор кодека/Подсказка : MP3
Продолжительность : 43 м.
Вид битрейта : Постоянный
Битрейт : 128 Кбит/сек
Каналы : 2 канала
Частота : 48,0 КГц
Метод сжатия : С потерями
Размер потока : 39,5 Мбайт (9%)
Выравнивание : Соединение по промежуткам
Продолжительность промежутка : 33 мс. (1,00 видеокадр)
Время предзагрузки промежутка : 504 мс.
Аудио #2
Идентификатор : 2
Формат : MPEG Audio
Версия формата : Version 1
Профиль формата : Layer 3
Режим : Joint stereo
Расширение режима : MS Stereo
Идентификатор кодека : 55
Идентификатор кодека/Подсказка : MP3
Продолжительность : 43 м.
Вид битрейта : Постоянный
Битрейт : 128 Кбит/сек
Каналы : 2 канала
Частота : 48,0 КГц
Метод сжатия : С потерями
Размер потока : 39,5 Мбайт (9%)
Выравнивание : Соединение по промежуткам
Продолжительность промежутка : 33 мс. (1,00 видеокадр)
Время предзагрузки промежутка : 504 мс.
Аудио #3
Идентификатор : 3
Формат : MPEG Audio
Версия формата : Version 1
Профиль формата : Layer 3
Режим : Joint stereo
Расширение режима : MS Stereo
Идентификатор кодека : 55
Идентификатор кодека/Подсказка : MP3
Продолжительность : 43 м.
Вид битрейта : Постоянный
Битрейт : 128 Кбит/сек
Каналы : 2 канала
Частота : 48,0 КГц
Метод сжатия : С потерями
Размер потока : 39,5 Мбайт (9%)
Выравнивание : Разделение по промежуткам
Продолжительность промежутка : 33 мс. (1,00 видеокадр)
Время предзагрузки промежутка : 500 мс.
[Профиль] [ЛС]
Показать сообщения:    

Текущее время: Сегодня 02:25

Часовой пояс: GMT



Вы не можете начинать темы
Вы не можете отвечать на сообщения
Вы не можете редактировать свои сообщения
Вы не можете удалять свои сообщения
Вы не можете голосовать в опросах
Вы не можете прикреплять файлы к сообщениям
Вы не можете скачивать файлы