Повелитель бури / The Hurt Locker (2008) BDRip 1080p от R.G. HD-Films | 60 fps

 
Автор Сообщение

sergej644 ®

Пол:

Стаж: 4 года 11 месяцев

Сообщений: 6046

Откуда: Soviet Union



Награды: Нет

Торрент-статистика

Создавать темы 12-Ноя-2014 20:36

[Цитировать]

Оригинальное название: The Hurt Locker
Год выпуска: 2008
Страна: США
Жанр: триллер, драма, военный
Продолжительность: 02:10:39
Перевод: Профессиональный (многоголосый закадровый)
Субтитры: русские (Полные), английские (Полные)-Режиссер: Кэтрин Бигелоу / Kathryn Bigelow-В ролях: Джереми Реннер (Sergeant First Class William James), Энтони Маки (Sergeant JT Sanborn), Брайан Джерати (Specialist Owen Eldridge), Эванджелин Лилли (Connie James), Кристиан Камарго (Colonel John Cambridge), Гай Пирс (Staff Sergeant Matt Thompson), Рэйф Файнс (Contractor Team Leader), Дэвид Морс (Colonel Reed), Кристофер Сайег (Beckham), Сэм Спруэлл (Contractor Charlie), Сухейл Алдаббач (Black Suit Man), Набил Кони (Professor Nabil)-Описание:
Члены элитного отряда по разминированию направлены в один из иракских городов, где практически каждый предмет представляет смертельную опасность. Джеймс - сапер-подрывник, который, несмотря на опасность, относится к обезвреживанию бомб как к игре.
Война - его настоящая страсть. Именно из-за этого в его отряде начинаются разногласия.-Рейтинг

imdb.com: 7.60 (257 905)
MPAA: R - Лицам до 17 лет обязательно присутствие взрослого-Автор рипа:Tiberiumsun69-Качество: BDRip 1080p / 60 FPS
Формат: MKV
Видео кодек: AVC
Аудио кодек:AC3
Видео: AVC, 1920x1080, 14000 kbps, 59,940 fps
Аудио №1: русский / AC3 / 5.1 / 48 kHz / 640 kbps / 16 bit |Многоголосый, закадровый Союз-Видео|
Аудио №2: английский / AC3 / 5.1 / 48 kHz / 640 kbps / 16 bit
Навигация по главам: есть- -

MI

General
Unique ID : 210807692218908631331568425597313063294 (0x9E9815AE94EEF7AEB838A4A277C1997E)
Complete name : A:1080p 60fpsПовелитель бури 1080p 60fps.mkv
Format : Matroska
Format version : Version 4 / Version 2
File size : 13.9 GiB
Duration : 2h 10mn
Overall bit rate : 15.3 Mbps
Encoded date : UTC 2014-10-18 04:16:43
Writing application : mkvmerge v6.9.1 ('Blue Panther') 64bit built on Apr 18 2014 18:23:38
Writing library : libebml v1.3.0 + libmatroska v1.4.1
Video
ID : 1
Format : AVC
Format/Info : Advanced Video Codec
Format profile : High@L4.1
Format settings, CABAC : Yes
Format settings, ReFrames : 4 frames
Codec ID : V_MPEG4/ISO/AVC
Duration : 2h 10mn
Bit rate : 14.0 Mbps
Width : 1 920 pixels
Height : 1 080 pixels
Display aspect ratio : 16:9
Frame rate : 59.940 fps
Color space : YUV
Chroma subsampling : 4:2:0
Bit depth : 8 bits
Scan type : Progressive
Bits/(Pixel*Frame) : 0.113
Stream size : 12.5 GiB (90%)
Writing library : x264 core 130 r2273 b3065e6
Encoding settings : cabac=1 / ref=4 / deblock=1:-1:-1 / analyse=0x3:0 / me=umh / subme=9 / psy=1 / psy_rd=1.00:0.00 / mixed_ref=1 / me_range=44 / chroma_me=0 / trellis=2 / 8x8dct=1 / cqm=0 / deadzone=21,11 / fast_pskip=0 / chroma_qp_offset=-2 / threads=12 / lookahead_threads=1 / sliced_threads=0 / nr=0 / decimate=0 / interlaced=0 / bluray_compat=0 / constrained_intra=0 / bframes=5 / b_pyramid=2 / b_adapt=2 / b_bias=0 / direct=3 / weightb=1 / open_gop=0 / weightp=2 / keyint=250 / keyint_min=59 / scenecut=40 / intra_refresh=0 / rc_lookahead=60 / rc=2pass / mbtree=1 / bitrate=14000 / ratetol=1.0 / qcomp=0.80 / qpmin=0 / qpmax=69 / qpstep=4 / cplxblur=20.0 / qblur=0.5 / ip_ratio=1.40 / aq=1:0.80
Language : English
Default : Yes
Forced : No
Audio #1
ID : 2
Format : AC-3
Format/Info : Audio Coding 3
Mode extension : CM (complete main)
Codec ID : A_AC3
Duration : 2h 10mn
Bit rate mode : Constant
Bit rate : 640 Kbps
Channel(s) : 6 channels
Channel positions : Front: L C R, Side: L R, LFE
Sampling rate : 48.0 KHz
Bit depth : 16 bits
Compression mode : Lossy
Stream size : 598 MiB (4%)
Title : Многоголосый, закадровый Союз-Видео
Language : Russian
Default : Yes
Forced : No
Audio #2
ID : 3
Format : AC-3
Format/Info : Audio Coding 3
Mode extension : CM (complete main)
Codec ID : A_AC3
Duration : 2h 10mn
Bit rate mode : Constant
Bit rate : 640 Kbps
Channel(s) : 6 channels
Channel positions : Front: L C R, Side: L R, LFE
Sampling rate : 48.0 KHz
Bit depth : 16 bits
Compression mode : Lossy
Stream size : 598 MiB (4%)
Title : Оригинал
Language : English
Default : No
Forced : No
Text #1
ID : 4
Format : UTF-8
Codec ID : S_TEXT/UTF8
Codec ID/Info : UTF-8 Plain Text
Title : Полные
Language : Russian
Default : No
Forced : No
Text #2
ID : 5
Format : UTF-8
Codec ID : S_TEXT/UTF8
Codec ID/Info : UTF-8 Plain Text
Title : Полные
Language : English
Default : No
Forced : No
Menu
00:00:00.000 : :00:00:00.000
00:10:00.099 : :00:10:00.099
00:16:33.242 : :00:16:33.242
00:22:07.368 : :00:22:07.368
00:27:23.642 : :00:27:23.642
00:34:09.714 : :00:34:09.714
00:43:41.828 : :00:43:41.828
00:50:43.123 : :00:50:43.123
01:03:53.079 : :01:03:53.079
01:09:03.348 : :01:09:03.348
01:16:21.368 : :01:16:21.368
01:22:40.497 : :01:22:40.497
01:29:47.549 : :01:29:47.549
01:36:52.432 : :01:36:52.432
01:42:51.290 : :01:42:51.290
01:50:14.900 : :01:50:14.900
01:57:26.957 : :01:57:26.957
02:04:41.933 : :02:04:41.933

Скриншоты

--
[Профиль] [ЛС]
Показать сообщения:    

Текущее время: Сегодня 09:11

Часовой пояс: GMT



Вы не можете начинать темы
Вы не можете отвечать на сообщения
Вы не можете редактировать свои сообщения
Вы не можете удалять свои сообщения
Вы не можете голосовать в опросах
Вы не можете прикреплять файлы к сообщениям
Вы не можете скачивать файлы