Повелители снов (2016) WEB-DL 1080p

 
Автор Сообщение

ODESSA ®

Пол:

Стаж: 1 год 7 месяцев

Сообщений: 421

Откуда: ODESSA



Награды: Нет

Торрент-статистика

Создавать темы 08-Сен-2016 07:01

[Цитировать]

Информация о фильме
Название: Повелители снов
Год выхода: 2016
Жанр: Комедия, фэнтези
Режиссер: Ирина Багрова
В ролях: Александр Балуев, Дмитрий Ендальцев, Анастасия Пронина, Дмитрий Соколов, Софья Лебедева, Валентина Оленева, Сергей Степанченко, Светлана Бельская, Михаил Водзуми, Илья Малаков
О фильме:
О них не пишут в газетах, но они существуют! Да-да! Специалисты «Корпорации снов» предложат сон на ваш вкус, а если надо, осуществят его передачу на расстоянии. Это ноу-хау перевернет мир, как телефон или интернет.
Но чем закончится безумный и опасный эксперимент?!

Страна: Россия
Студия: Konfetti
Продолжительность: 01:16:44
Перевод: Не требуется
Файл
Качество: WEB-DL 1080p
Кодек: MPEG-4 AVC
Видео: 1920x804 (2,40:1), 25 fps, MPEG-4 AVC ~ 4554 kbps avg, 0.118 bit/pixel
Аудио: AC3, 48 kHz, 6 ch, ~384.00 kbps avg | русский |
Субтитры: Отсутствуют
Семпл

Инфо-файл

Общее
Уникальный идентификатор : 205204786040474935857218854465565343093 (0x9A610114585D0A378207B29667ABBD75)
Полное имя : D:TorrentsЗавершенныеPoveliteli.Snov.2O16.O.WEB-DL.1O8Op.mkv
Формат : Matroska
Версия формата : Version 2
Размер файла : 2,65 Гбайт
Продолжительность : 1 ч. 16 м.
Общий поток : 4940 Кбит/сек
Дата кодирования : UTC 2016-09-08 00:45:55
Программа кодирования : mkvmerge v8.3.0 ('Over the Horizon') 64bit
Библиотека кодирования : libebml v1.3.1 + libmatroska v1.4.2
Видео
Идентификатор : 1
Формат : AVC
Формат/Информация : Advanced Video Codec
Профиль формата : High@L4
Параметр CABAC формата : Да
Параметр ReFrames формата : 5 кадров
Идентификатор кодека : V_MPEG4/ISO/AVC
Продолжительность : 1 ч. 16 м.
Битрейт : 4554 Кбит/сек
Ширина : 1920 пикселей
Высота : 804 пикселя
Соотношение сторон : 2,40:1
Режим частоты кадров : Постоянный
Частота кадров : 25,000 кадров/сек
Цветовое пространство : YUV
Субдискретизация насыщенности : 4:2:0
Битовая глубина : 8 бит
Тип развёртки : Прогрессивная
Бит/(Пиксели*Кадры) : 0.118
Размер потока : 2,44 Гбайт (92%)
Язык : English
Default : Да
Forced : Нет
Цветовой диапазон : Limited
Основные цвета : BT.709
Характеристики трансфера : BT.709
Коэффициенты матрицы : BT.709
Аудио
Идентификатор : 2
Формат : AC-3
Формат/Информация : Audio Coding 3
Расширение режима : CM (complete main)
Параметр Endianness формата : Big
Идентификатор кодека : A_AC3
Продолжительность : 1 ч. 16 м.
Вид битрейта : Постоянный
Битрейт : 384 Кбит/сек
Каналы : 6 каналов
Расположение каналов : Front: L C R, Side: L R, LFE
Частота : 48,0 КГц
Частота кадров : 31,250 кадров/сек (1536 spf)
Метод сжатия : С потерями
Размер потока : 211 Мбайт (8%)
Язык : Russian
Default : Да
Forced : Нет
Меню
00:00:00.000 : en:Глава 1
00:04:50.360 : en:Глава 2
00:10:33.520 : en:Глава 3
00:17:45.560 : en:Глава 4
00:24:50.000 : en:Глава 5
00:32:28.080 : en:Глава 6
00:37:15.360 : en:Глава 7
00:43:01.040 : en:Глава 8
00:49:27.600 : en:Глава 9
00:53:26.520 : en:Глава 10
00:59:24.520 : en:Глава 11
01:04:08.480 : en:Глава 12
01:11:10.280 : en:Глава 13

Скриншоты

[Профиль] [ЛС]
Показать сообщения:    

Текущее время: Сегодня 12:07

Часовой пояс: GMT



Вы не можете начинать темы
Вы не можете отвечать на сообщения
Вы не можете редактировать свои сообщения
Вы не можете удалять свои сообщения
Вы не можете голосовать в опросах
Вы не можете прикреплять файлы к сообщениям
Вы не можете скачивать файлы