Повар на колесах / Chef (2014) BDRip 1080p от KinoRay

 
Автор Сообщение

Белочка ®

Пол:

Стаж: 5 лет 1 месяц

Сообщений: 2089



Награды: 1 (Подробнее)

Girls (Количество: 1)
Торрент-статистика

Создавать темы 12-Окт-2014 04:32

[Цитировать]

Повар на колесах / Chef Год выпуска: 2014
Страна: США
Производство: Aldamisa Entertainment, Kilburn Media
Слоган: «Starting from scratch never tasted so good»
Жанр: комедия, драма, семейный
Продолжительность: 01:49:54
Перевод: Профессиональный (полное дублирование) R5
Субтитры: Английские-Режиссер: Джон Фавро / Jon Favreau
Сценарий: Джон Фавро / Jon Favreau
Продюсер: Сергей Беспалов / Sergei Bespalov, Джон Фавро / Jon Favreau, Карен Джонсон / Karen Gilchrist, Молли Аллен / Molly Allen, Джон Бартники / John Bartnicki
Оператор: Крамер Моргенто / Kramer Morgenthau-В ролях: Джон Фавро (Carl Casper), Джон Легуизамо (Martin), Бобби Каннавале (Tony), Эмджей Энтони (Percy), Скарлетт Йоханссон (Molly), Дастин Хоффман (Riva), София Вергара (Inez), Оливер Платт (Ramsey Michel), Эми Седарис (Jen), Роберт Дауни мл. (Marvin), Расселл Питерс (Miami Cop), Чейз Гримм (Vendor)
Дублёры: Александр Погребняк (Martin), Михаил Тишин (Tony), Анна Соболева (Molly), Владислав Пупков (Riva), Виктория Хмельницкая (Inez), Татьяна Антонова (Jen)-Сборы в США: $31 424 003
Сборы в России: $281 752
Сборы в мире: $45 967 935
Мировая премьера: 28 апреля 2014
Премьера (РФ): 5 июня 2014, «Top Film Distribution»
Релиз на DVD: 14 октября 2014, «Lizard Cinema Trade»-Описание: Сюжет фильма разворачивается вокруг шеф-повара Карла Каспера, потерявшего работу в известном ресторане Лос-Анджелеса. Карл решает организовать сеть закусочных на колесах, чтобы отыскать потерянное кулинарное вдохновение и попутно наладить отношения с семьей.-Рейтинг:

MPAA: R - Лицам до 17 лет обязательно присутствие взрослого-Релиз:
Видеоряд от HDAccess
Сборка рипа - rem3
Формат: Matroska
Видео: 1920x800 at 25 fps, x264@L4.1, ~11900 kbps avg
Aудио#1: Russian: 48 kHz, AC3 Dolby Digital, 3/2 (L,C,R,l,r) + LFE ch, ~448 kbps |Дубляж, R5|
Aудио#2: English: 48 kHz, DTS, 3/2 (L,C,R,l,r) + LFE ch, ~1509 kbps-

Знаете ли Вы, что...

Во время съемок фильма Джон Фавро готовил свои собственные блюда, обучаясь у шеф-повара Роя Чоя (Roy Cho), который, как и его персонаж, работает в закусочной на колесах.
Когда Карл с сыном сидят в кинотеатре, можно услышать звук репульсоров из фильма «Железный человек» (2008), режиссером которого является Джон Фавро.
Когда Перси создает аккаунт Карла в Twitter, можно заметить, что имя аккаунта - «@ChefCarlCasper». Однако самый первый твит Карла размещается пользователем «@CasperCarl». В оставшейся части фильма все его твиты правильно размещаются от имени «@ChefCarlCasper».

MI

General
Unique ID : 200679923779992817134849345917290881300 (0x96F98C2553055D0CAC5F8BE24E852114)
Complete name : Chef.2014.1080p.BluRay.Rus.Eng.x264.mkv
Format : Matroska
Format version : Version 2
File size : 10.9 GiB
Duration : 1h 49mn
Overall bit rate : 14.2 Mbps
Movie name : Chef.2014.1080p.BluRay.DTS.x264-HDAccess
Encoded date : UTC 2014-10-11 16:59:16
Writing application : mkvmerge v3.3.0 ('Language') built on Mar 24 2010 14:59:24
Writing library : libebml v0.8.0 + libmatroska v0.9.0
Video
ID : 1
Format : AVC
Format/Info : Advanced Video Codec
Format profile : High@L4.1
Format settings, CABAC : Yes
Format settings, ReFrames : 5 frames
Codec ID : V_MPEG4/ISO/AVC
Duration : 1h 49mn
Bit rate : 12.0 Mbps
Width : 1 920 pixels
Height : 800 pixels
Display aspect ratio : 2.40:1
Frame rate mode : Constant
Frame rate : 25.000 fps
Color space : YUV
Chroma subsampling : 4:2:0
Bit depth : 8 bits
Scan type : Progressive
Bits/(Pixel*Frame) : 0.311
Stream size : 9.18 GiB (84%)
Writing library : x264 core 142 r2479kMod dd79a61
Encoding settings : cabac=1 / ref=5 / deblock=1:-3:-3 / analyse=0x3:0x133 / me=umh / subme=10 / psy=1 / fade_compensate=0.00 / psy_rd=1.00:0.00 / mixed_ref=1 / me_range=24 / chroma_me=1 / trellis=2 / 8x8dct=1 / cqm=0 / deadzone=21,11 / fast_pskip=0 / chroma_qp_offset=-2 / threads=24 / lookahead_threads=6 / sliced_threads=0 / nr=0 / decimate=0 / interlaced=0 / bluray_compat=0 / constrained_intra=0 / fgo=0 / bframes=10 / b_pyramid=2 / b_adapt=2 / b_bias=0 / direct=3 / weightb=1 / open_gop=0 / weightp=2 / keyint=250 / keyint_min=25 / scenecut=40 / intra_refresh=0 / rc=crf / mbtree=0 / crf=16.0000 / qcomp=0.75 / qpmin=0 / qpmax=69 / qpstep=4 / ip_ratio=1.20 / pb_ratio=1.20 / aq=1:0.80
Language : English
Default : No
Forced : No
Audio #1
ID : 2
Format : AC-3
Format/Info : Audio Coding 3
Mode extension : CM (complete main)
Format settings, Endianness : Big
Codec ID : A_AC3
Duration : 1h 49mn
Bit rate mode : Constant
Bit rate : 448 Kbps
Channel(s) : 6 channels
Channel positions : Front: L C R, Side: L R, LFE
Sampling rate : 48.0 KHz
Bit depth : 16 bits
Compression mode : Lossy
Stream size : 352 MiB (3%)
Title : AC3 5.1 @ 448 kbps - Dub, R5
Language : Russian
Default : Yes
Forced : No
Audio #2
ID : 3
Format : DTS
Format/Info : Digital Theater Systems
Mode : 16
Format settings, Endianness : Big
Codec ID : A_DTS
Duration : 1h 49mn
Bit rate mode : Constant
Bit rate : 1 509 Kbps
Channel(s) : 6 channels
Channel positions : Front: L C R, Side: L R, LFE
Sampling rate : 48.0 KHz
Bit depth : 24 bits
Compression mode : Lossy
Delay relative to video : 11ms
Stream size : 1.16 GiB (11%)
Title : DTS 5.1 @ 1509 kbps
Language : English
Default : No
Forced : No
Text
ID : 4
Format : PGS
Codec ID : S_HDMV/PGS
Codec ID/Info : The same subtitle format used on BDs/HD-DVDs
Language : English
Default : No
Forced : No
Menu
00:00:00.000 : en:00:00:00.000
00:05:20.520 : en:00:05:20.520
00:10:36.520 : en:00:10:36.520
00:16:33.080 : en:00:16:33.080
00:19:57.520 : en:00:19:57.520
00:25:29.800 : en:00:25:29.800
00:33:00.640 : en:00:33:00.640
00:39:24.720 : en:00:39:24.720
00:47:09.800 : en:00:47:09.800
00:51:40.560 : en:00:51:40.560
00:57:51.000 : en:00:57:51.000
01:04:16.360 : en:01:04:16.360
01:13:13.000 : en:01:13:13.000
01:20:26.760 : en:01:20:26.760
01:26:05.200 : en:01:26:05.200
01:33:08.160 : en:01:33:08.160
01:39:34.080 : en:01:39:34.080
01:43:51.760 : en:01:43:51.760

Скриншоты

-
[Профиль] [ЛС]
Показать сообщения:    

Текущее время: Сегодня 22:08

Часовой пояс: GMT



Вы не можете начинать темы
Вы не можете отвечать на сообщения
Вы не можете редактировать свои сообщения
Вы не можете удалять свои сообщения
Вы не можете голосовать в опросах
Вы не можете прикреплять файлы к сообщениям
Вы не можете скачивать файлы