Повар на колесах / Chef (2014) HDRip-AVC от ExKinoRay | Лицензия

 
Автор Сообщение

Белочка ®

Пол:

Стаж: 5 лет 1 месяц

Сообщений: 2089



Награды: 1 (Подробнее)

Girls (Количество: 1)
Торрент-статистика

Создавать темы 12-Окт-2014 04:29

[Цитировать]

Информация о фильме
Название: Повар на колесах
Оригинальное название: Chef
Год выпуска: 2014
Жанр: Комедия, драма, семейный
Выпущено: США, Aldamisa Entertainment
Режиссер: Джон Фавро
В ролях: Джон Фавро, Эмджей Энтони, София Вергара, Джон Легуизамо, Скарлетт Йоханссон, Оливер Плэтт, Бобби Каннавейл, Дастин Хоффман, Роберт Дауни мл., Эми Седарис
О фильме: Сюжет фильма разворачивается вокруг шеф-повара Карла Каспера, потерявшего работу в известном ресторане Лос-Анджелеса. Вместе с сыном и бывшим напарником Карл решает организовать сеть закусочных на колесах, чтобы отыскать потерянное кулинарное вдохновение и попутно наладить отношения с семьей.

Файл
Качество: HDRip (AVC)
Видео: MPEG-4 AVC, 1386 Кбит/с, 1024x426
Аудио: Русский, английский (AC3, 6 ch, 448 Кбит/с)
Продолжительность: 01:49:54
Перевод: Дублированный [Лицензия R5]

MI

General
Unique ID : 254368336203850483868913560369311982999 (0xBF5D8F3F513B878F998904C7EEA72597)
Complete name : C:Chef.2014.DR5.HDRip.AVC.ExKinoRay.mkv
Format : Matroska
Format version : Version 2
File size : 1.75 GiB
Duration : 1h 49mn
Overall bit rate : 2 284 Kbps
Movie name : Chef 2014 from ExKinoRay
Encoded date : UTC 2014-10-12 02:35:20
Writing application : mkvmerge v4.9.1 ('Ich will') built on Jul 11 2011 23:53:15
Writing library : libebml v1.2.1 + libmatroska v1.1.1
Video
ID : 1
Format : AVC
Format/Info : Advanced Video Codec
Format profile : High@L4.1
Format settings, CABAC : Yes
Format settings, ReFrames : 9 frames
Codec ID : V_MPEG4/ISO/AVC
Duration : 1h 49mn
Bit rate : 1 386 Kbps
Width : 1 024 pixels
Height : 426 pixels
Display aspect ratio : 2.40:1
Frame rate mode : Constant
Frame rate : 25.000 fps
Color space : YUV
Chroma subsampling : 4:2:0
Bit depth : 8 bits
Scan type : Progressive
Bits/(Pixel*Frame) : 0.127
Stream size : 1.03 GiB (59%)
Title : Enigma-Vladislav71
Writing library : x264 core 116 r2044 392e762
Encoding settings : cabac=1 / ref=9 / deblock=1:-3:-3 / analyse=0x3:0x113 / me=umh / subme=10 / psy=1 / psy_rd=1.00:0.20 / mixed_ref=1 / me_range=32 / chroma_me=1 / trellis=2 / 8x8dct=1 / cqm=0 / deadzone=21,11 / fast_pskip=0 / chroma_qp_offset=-3 / threads=12 / sliced_threads=0 / nr=0 / decimate=0 / interlaced=0 / bluray_compat=0 / constrained_intra=0 / bframes=9 / b_pyramid=2 / b_adapt=2 / b_bias=0 / direct=3 / weightb=1 / open_gop=0 / weightp=2 / keyint=250 / keyint_min=25 / scenecut=40 / intra_refresh=0 / rc=2pass / mbtree=0 / bitrate=1386 / ratetol=1.0 / qcomp=0.60 / qpmin=0 / qpmax=69 / qpstep=4 / cplxblur=20.0 / qblur=0.5 / ip_ratio=1.40 / pb_ratio=1.30 / aq=1:1.00
Default : Yes
Forced : No
Audio #1
ID : 2
Format : AC-3
Format/Info : Audio Coding 3
Mode extension : CM (complete main)
Format settings, Endianness : Big
Codec ID : A_AC3
Duration : 1h 49mn
Bit rate mode : Constant
Bit rate : 448 Kbps
Channel(s) : 6 channels
Channel positions : Front: L C R, Side: L R, LFE
Sampling rate : 48.0 KHz
Bit depth : 16 bits
Compression mode : Lossy
Stream size : 352 MiB (20%)
Title : DUB R5
Language : Russian
Default : Yes
Forced : No
Audio #2
ID : 3
Format : AC-3
Format/Info : Audio Coding 3
Mode extension : CM (complete main)
Format settings, Endianness : Big
Codec ID : A_AC3
Duration : 1h 49mn
Bit rate mode : Constant
Bit rate : 448 Kbps
Channel(s) : 6 channels
Channel positions : Front: L C R, Side: L R, LFE
Sampling rate : 48.0 KHz
Bit depth : 16 bits
Compression mode : Lossy
Stream size : 352 MiB (20%)
Language : English
Default : No
Forced : No
Menu
00:00:00.000 : en:00:00:00.000
00:05:20.520 : en:00:05:20.520
00:10:36.520 : en:00:10:36.520
00:16:33.080 : en:00:16:33.080
00:19:57.520 : en:00:19:57.520
00:25:29.800 : en:00:25:29.800
00:33:00.640 : en:00:33:00.640
00:39:24.720 : en:00:39:24.720
00:47:09.800 : en:00:47:09.800
00:51:40.560 : en:00:51:40.560
00:57:51.000 : en:00:57:51.000
01:04:16.360 : en:01:04:16.360
01:13:13.000 : en:01:13:13.000
01:20:26.760 : en:01:20:26.760
01:26:05.200 : en:01:26:05.200
01:33:08.160 : en:01:33:08.160
01:39:34.080 : en:01:39:34.080
01:43:51.760 : en:01:43:51.760

Скриншоты



Релиз от: [/url]
Авторы релиза:
[Профиль] [ЛС]
Показать сообщения:    

Текущее время: Сегодня 10:31

Часовой пояс: GMT



Вы не можете начинать темы
Вы не можете отвечать на сообщения
Вы не можете редактировать свои сообщения
Вы не можете удалять свои сообщения
Вы не можете голосовать в опросах
Вы не можете прикреплять файлы к сообщениям
Вы не можете скачивать файлы