Повар на колесах / Chef (2014) BDRip-AVC от HELLYWOOD | Лицензия

 
Автор Сообщение

Белочка ®

Пол:

Стаж: 5 лет 1 месяц

Сообщений: 2089



Награды: 1 (Подробнее)

Girls (Количество: 1)
Торрент-статистика

Создавать темы 11-Окт-2014 20:38

[Цитировать]

Год выпуска: 2014
Производство: США / Aldamisa Entertainment, Kilburn Media
Жанр: Комедия, драма, семейный
Продолжительность: 01:49:54
Перевод: Профессиональный (дублированный) [лицензия R5]
Субтитры: Английские, английские (SDH)
Навигация по главам: Есть-Режиссер: Джон Фавро / Jon Favreau
В ролях: Джон Фавро, Джон Легуизамо, Бобби Каннавале, Эмджей Энтони, Скарлетт Йоханссон, Дастин Хоффман, София Вергара, Оливер Платт, Эми Седарис, Роберт Дауни мл.
О фильме: Сюжет фильма разворачивается вокруг шеф-повара Карла Каспера, потерявшего работу в известном ресторане Лос-Анджелеса. Карл решает организовать сеть закусочных на колесах, чтобы отыскать потерянное кулинарное вдохновение и попутно наладить отношения с семьей.- -Качество: BDRip-AVC
Формат: MKV
Видео: х.264, 960x400 (2,40:1), 25,000 fps, 1518 kbps, 0.158 bit/pixel
Аудио: 48 kHz, AC3 Dolby Digital, 3/2 (L,C,R,l,r) + LFE ch, 448.00 kbps-Релиз от:
Автор рипа: potroks-

Скриншоты

MI

General
Unique ID : 178095819139122546472913807857822228370 (0x85FC01D1A2789E2E8451CB3A9A145F92)
Complete name : /Povar.na.Koliosah.2014.RUS.BDRip.x264.-HELLYWOOD.mkv
Format : Matroska
Format version : Version 4 / Version 2
File size : 1.46 GiB
Duration : 1h 49mn
Overall bit rate : 1 904 Kbps
Movie name : Chef (2014) - HELLYWOOD
Encoded date : UTC 2014-09-10 01:32:33
Writing application : mkvmerge v5.9.0 ('On The Loose') built on Dec 15 2012 16:39:58
Writing library : libebml v1.3.0 + libmatroska v1.4.0
Video
ID : 1
Format : AVC
Format/Info : Advanced Video Codec
Format profile : High@L4.1
Format settings, CABAC : Yes
Format settings, ReFrames : 12 frames
Codec ID : V_MPEG4/ISO/AVC
Duration : 1h 49mn
Bit rate : 1 518 Kbps
Width : 960 pixels
Height : 400 pixels
Display aspect ratio : 2.40:1
Frame rate : 25.000 fps
Color space : YUV
Chroma subsampling : 4:2:0
Bit depth : 8 bits
Scan type : Progressive
Bits/(Pixel*Frame) : 0.158
Stream size : 1.14 GiB (78%)
Title : potroks
Writing library : x264 core 130 r2273 b3065e6
Encoding settings : cabac=1 / ref=12 / deblock=1:-2:-2 / analyse=0x3:0x133 / me=umh / subme=11 / psy=1 / psy_rd=1.02:0.00 / mixed_ref=1 / me_range=48 / chroma_me=1 / trellis=2 / 8x8dct=1 / cqm=0 / deadzone=21,11 / fast_pskip=0 / chroma_qp_offset=-2 / threads=9 / lookahead_threads=2 / sliced_threads=0 / nr=0 / decimate=0 / interlaced=0 / bluray_compat=0 / constrained_intra=0 / bframes=13 / b_pyramid=2 / b_adapt=2 / b_bias=0 / direct=3 / weightb=1 / open_gop=0 / weightp=2 / keyint=250 / keyint_min=23 / scenecut=40 / intra_refresh=0 / rc_lookahead=140 / rc=2pass / mbtree=1 / bitrate=1518 / ratetol=1.0 / qcomp=0.70 / qpmin=0 / qpmax=69 / qpstep=4 / cplxblur=20.0 / qblur=0.5 / vbv_maxrate=50000 / vbv_bufsize=62500 / nal_hrd=none / ip_ratio=1.35 / aq=1:0.80
Language : English
Default : Yes
Forced : No
Audio
ID : 2
Format : AC-3
Format/Info : Audio Coding 3
Mode extension : CM (complete main)
Format settings, Endianness : Big
Codec ID : A_AC3
Duration : 1h 49mn
Bit rate mode : Constant
Bit rate : 384 Kbps
Channel(s) : 6 channels
Channel positions : Front: L C R, Side: L R, LFE
Sampling rate : 48.0 KHz
Bit depth : 16 bits
Compression mode : Lossy
Stream size : 302 MiB (20%)
Title : Dub | DD 5.1 @ 384 kbps - НТВ+
Language : Russian
Default : Yes
Forced : Yes
Text #1
ID : 3
Format : UTF-8
Codec ID : S_TEXT/UTF8
Codec ID/Info : UTF-8 Plain Text
Language : English
Default : No
Forced : No
Text #2
ID : 4
Format : UTF-8
Codec ID : S_TEXT/UTF8
Codec ID/Info : UTF-8 Plain Text
Title : SDH
Language : English
Default : No
Forced : No
Menu
00:00:00.000 : en:00:00:00.000
00:05:20.520 : en:00:05:20.520
00:10:36.520 : en:00:10:36.520
00:16:33.080 : en:00:16:33.080
00:19:57.520 : en:00:19:57.520
00:25:29.800 : en:00:25:29.800
00:33:00.640 : en:00:33:00.640
00:39:24.720 : en:00:39:24.720
00:47:09.800 : en:00:47:09.800
00:51:40.560 : en:00:51:40.560
00:57:51.000 : en:00:57:51.000
01:04:16.360 : en:01:04:16.360
01:13:13.000 : en:01:13:13.000
01:20:26.760 : en:01:20:26.760
01:26:05.200 : en:01:26:05.200
01:33:08.160 : en:01:33:08.160
01:39:34.080 : en:01:39:34.080
01:43:51.760 : en:01:43:51.760
[Профиль] [ЛС]
Показать сообщения:    

Текущее время: Сегодня 22:43

Часовой пояс: GMT



Вы не можете начинать темы
Вы не можете отвечать на сообщения
Вы не можете редактировать свои сообщения
Вы не можете удалять свои сообщения
Вы не можете голосовать в опросах
Вы не можете прикреплять файлы к сообщениям
Вы не можете скачивать файлы