Повар, вор, его жена и ее любовник / The Cook, the Thief, His Wife & Her Lover (1989) BDRip 1080p от HDClub | P, P2, A

 
Автор Сообщение

sergej644 ®

Пол:

Стаж: 4 года 11 месяцев

Сообщений: 6046

Откуда: Soviet Union



Награды: Нет

Торрент-статистика

Создавать темы 19-Июн-2015 19:42

[Цитировать]

Повар, вор, его жена и её любовник / The Cook, the Thief, His Wife & Her LoverГод выпуска: 1989
Страна: Великобритания, Франция
Производство: Allarts, Erato Films, Films Inc.
Слоган: «Lust...Murder...Dessert. Bon Appetit!»
Жанр: драма, криминал
Продолжительность: 02:04:29
Перевод:
Профессиональный (двухголосый) НТВ
Профессиональный (многоголосый, закадровый) СТС
Авторский (Василий Горчаков)
Субтитры: Russian, English-Режиссер: Питер Гринуэй / Peter Greenaway
Сценарий: Питер Гринуэй / Peter Greenaway
Продюсер: Кеес Касандер / Kees Kasander, Паскаль Доман / Pascale Dauman, Даниэль Тоскан дю Плантье / Daniel Toscan du Plantier, Дэнис Вигман / Denis Wigman
Оператор: Саша Вьерни / Sacha Vierny
Композитор: Майкл Найман / Michael Nyman-В ролях: Ришар Боренже (Richard), Майкл Гэмбон (Albert), Хелен Миррен (Georgina), Алан Ховард (Michael), Тим Рот (Mitchel), Киран Хайндс (Cory), Гари Олсен (Spangler), Ивэн Стюарт (Harris), Роджер Эштон-Гриффитс (Turpin), Рон Кук (Mews), Лиз Смит (Grace), Эмер Гиллеспи (Patricia)-Сборы в США: $7 724 701
Мировая премьера: 11 сентября 1989-Описание: Предводитель одной из преступных группировок каждый вечер приходит со своей женой и своими сообщниками во французский ресторан, который является его собственностью. Устав от постоянных издевательств и унижений со стороны мужа, жена находит себе любовника среди посетителей ресторана и занимается с ним любовью с молчаливого согласия повара.-Рейтинг:

MPAA: NC-17 - Лицам до 17 лет просмотр запрещен-Формат: Matroska
Видео: 1916x816 at 24.000 fps, x264@L4.1, ~10.5 Mbps avg
Aудио#1: Russian: 48 kHz, AC3, 2/0 (L,R) ch, ~448.00 kbps avg |Двухголосый закадровый, НТВ|
Aудио#2: Russian: 48 kHz, AС3, 2/0 (L,R) ch, ~192.00 kbps avg |Многоголосый закадровый, СТС|
Aудио#3: Russian: 48 kHz, AС3, 2/0 (L,R) ch, ~192.00 kbps avg |Авторский, В.Горчаков|
Aудио#4: English: 48 kHz, AС3, 2/0 (L,R) ch, ~192.00 kbps avg-

Знаете ли Вы, что...

Картина открывается репликой автора: «Этот фильм посвящается всем тем, кого я ненавижу».
На стене в ресторане «Голландцы» висит картина голландского художника Франса Халса «Банкет офицеров гражданской гвардии Святого Георгия».
Неоднократно звучащая в фильме композиция «Fish Beach» не вошла в саундтрек и не упоминается в титрах, так как эта композиция была написана для фильма «Отсчёт утопленников» (1988).

MI

General
Unique ID : 246783397553586845959930372608928275883 (0xB9A8C0E633C5518E9A93B6D437A85DAB)
Complete name : [1989] Повар, вор, его жена и её любовник [BDRip] [1080p].mkv
Format : Matroska
Format version : Version 4 / Version 2
File size : 10.2 GiB
Duration : 2h 4mn
Overall bit rate : 11.8 Mbps
Encoded date : UTC 2015-06-10 06:49:42
Writing application : mkvmerge v7.8.0 ('River Man') 32bit built on Mar 27 2015 16:18:02
Writing library : libebml v1.3.1 + libmatroska v1.4.2
Video
ID : 1
Format : AVC
Format/Info : Advanced Video Codec
Format profile : High@L4.1
Format settings, CABAC : Yes
Format settings, ReFrames : 5 frames
Codec ID : V_MPEG4/ISO/AVC
Duration : 2h 4mn
Bit rate : 10.5 Mbps
Width : 1 916 pixels
Height : 816 pixels
Display aspect ratio : 2.35:1
Frame rate mode : Constant
Frame rate : 24.000 fps
Color space : YUV
Chroma subsampling : 4:2:0
Bit depth : 8 bits
Scan type : Progressive
Bits/(Pixel*Frame) : 0.280
Stream size : 9.14 GiB (89%)
Writing library : x264 core 130 r2273 b3065e6
Encoding settings : cabac=1 / ref=5 / deblock=1:-3:-3 / analyse=0x3:0x113 / me=umh / subme=11 / psy=1 / psy_rd=1.10:0.00 / mixed_ref=1 / me_range=32 / chroma_me=1 / trellis=2 / 8x8dct=1 / cqm=0 / deadzone=21,11 / fast_pskip=0 / chroma_qp_offset=-2 / threads=12 / lookahead_threads=3 / sliced_threads=0 / nr=0 / decimate=0 / interlaced=0 / bluray_compat=0 / constrained_intra=0 / bframes=10 / b_pyramid=2 / b_adapt=2 / b_bias=0 / direct=3 / weightb=1 / open_gop=0 / weightp=2 / keyint=230 / keyint_min=23 / scenecut=40 / intra_refresh=0 / rc=crf / mbtree=0 / crf=16.8 / qcomp=0.75 / qpmin=0 / qpmax=69 / qpstep=4 / ip_ratio=1.40 / pb_ratio=1.30 / aq=1:0.70
Language : English
Default : Yes
Forced : No
Audio #1
ID : 2
Format : AC-3
Format/Info : Audio Coding 3
Mode extension : CM (complete main)
Format settings, Endianness : Big
Codec ID : A_AC3
Duration : 2h 4mn
Bit rate mode : Constant
Bit rate : 448 Kbps
Channel(s) : 2 channels
Channel positions : Front: L R
Sampling rate : 48.0 KHz
Bit depth : 16 bits
Compression mode : Lossy
Stream size : 399 MiB (4%)
Title : Двуголосый закадровый - «НТВ»
Language : Russian
Default : Yes
Forced : No
Audio #2
ID : 3
Format : AC-3
Format/Info : Audio Coding 3
Mode extension : CM (complete main)
Format settings, Endianness : Big
Codec ID : A_AC3
Duration : 2h 4mn
Bit rate mode : Constant
Bit rate : 192 Kbps
Channel(s) : 2 channels
Channel positions : Front: L R
Sampling rate : 48.0 KHz
Bit depth : 16 bits
Compression mode : Lossy
Stream size : 171 MiB (2%)
Title : Многоголосый закадровый - «СТС»
Language : Russian
Default : No
Forced : No
Audio #3
ID : 4
Format : AC-3
Format/Info : Audio Coding 3
Mode extension : CM (complete main)
Format settings, Endianness : Big
Codec ID : A_AC3
Duration : 2h 4mn
Bit rate mode : Constant
Bit rate : 192 Kbps
Channel(s) : 2 channels
Channel positions : Front: L R
Sampling rate : 48.0 KHz
Bit depth : 16 bits
Compression mode : Lossy
Stream size : 171 MiB (2%)
Title : Одноголосый закадровый - В.Горчаков
Language : Russian
Default : No
Forced : No
Audio #4
ID : 5
Format : AC-3
Format/Info : Audio Coding 3
Mode extension : CM (complete main)
Format settings, Endianness : Big
Codec ID : A_AC3
Duration : 2h 4mn
Bit rate mode : Constant
Bit rate : 192 Kbps
Channel(s) : 2 channels
Channel positions : Front: L R
Sampling rate : 48.0 KHz
Bit depth : 16 bits
Compression mode : Lossy
Stream size : 171 MiB (2%)
Title : Оригинальный
Language : English
Default : No
Forced : No
Text #1
ID : 6
Format : UTF-8
Codec ID : S_TEXT/UTF8
Codec ID/Info : UTF-8 Plain Text
Title : Russian
Language : Russian
Default : No
Forced : No
Text #2
ID : 7
Format : UTF-8
Codec ID : S_TEXT/UTF8
Codec ID/Info : UTF-8 Plain Text
Title : English
Language : English
Default : No
Forced : No
Menu
00:00:00.000 : en:00:00:00.000
00:10:39.625 : en:00:10:39.625
00:23:23.542 : en:00:23:23.542
00:36:32.708 : en:00:36:32.708
00:51:12.000 : en:00:51:12.000
01:00:11.792 : en:01:00:11.792
01:11:03.833 : en:01:11:03.833
01:21:44.250 : en:01:21:44.250
01:33:36.875 : en:01:33:36.875
01:43:01.167 : en:01:43:01.167
01:52:17.875 : en:01:52:17.875
02:01:13.833 : en:02:01:13.833

Скриншоты

-За Blu-ray спасибо Volshebnik.
[Профиль] [ЛС]
Показать сообщения:    

Текущее время: Сегодня 11:06

Часовой пояс: GMT



Вы не можете начинать темы
Вы не можете отвечать на сообщения
Вы не можете редактировать свои сообщения
Вы не можете удалять свои сообщения
Вы не можете голосовать в опросах
Вы не можете прикреплять файлы к сообщениям
Вы не можете скачивать файлы