Победительница / Мундэнс Александр / Moondance Alexander (Майкл Дамиан / Michael Damian) [2007, США, Cемейный, DVDRip-AVC] MVO + Original Eng

 
Автор Сообщение

TorrentFilm ®

Пол:

Стаж: 1 год 11 месяцев

Сообщений: 7741



Награды: Нет

Торрент-статистика

Создавать темы 24-Апр-2015 00:04

[Цитировать]

Победительница / Мундэнс Александр / Moondance Alexander
Страна: США
Жанр: Драма, семейный
Год выпуска: 2007
Продолжительность: 01:29:45
Перевод: Профессиональный (многоголосый закадровый)
Cубтитры: нет
Оригинальная аудиодорожка: английский
Режиссер: Майкл Дамиан / Michael Damian
В ролях: Кей Панабейкер, Дон Джонсон, Лори Лахлин, Джеймс Бест, Саша Коэн, Уитни Слоан, Джозеф Норман Шоу, Мими Джианопулос, Эден Томни, Лэндон Либуарон-Описание: Девушка живет со своей эксцентричной матерью. У нее все не ладится, жизнь кажется монотонной и пустой, пока она не находит лошадь, которая сбежала из загона. Хотя девушка и возвращает лошадь (по кличке Chekers) ее владельцу, но пытается помочь реализовать скрытый потенциал этой лошади. Она уговаривает владельца чтобы тот разрешил ей тренировать лошадь к соревнованиям...-Качество видео: DVDRip-AVC
Формат видео: MKV
Видео: H.264, 712x400 (16:9), 25 fps, ~1900 kbps
Аудио 1: AC3 Dolby Digital, 48.0 KHz, 2 ch, 192.00 kbps (Rus)
Аудио 2: AC3 Dolby Digital, 48.0 KHz, 2 ch, 192.00 kbps (Eng)

MediaInfo

ОбщееУникальный идентификатор : 170692922544881369436118579810795837298 (0x806A42D64C157A8CB5D2406B37F4D772)Полное имя : E:\FILMS\Moondance Alexander 2007\Moondance Alexander 2007 DVDRip.mkvФормат : MatroskaВерсия формата : Version 4 / Version 2Размер файла : 1,46 ГбайтПродолжительность : 1 ч. 29 м.Общий поток : 2328 Кбит/секНазвание фильма : Moondance Alexander 2007) DvdRipДата кодирования : UTC 2015-04-18 23:25:41Программа кодирования : mkvmerge v6.7.0 ('Back to the Ground') 32bit built on Jan 8 2014 15:03:17Библиотека кодирования : libebml v1.3.0 + libmatroska v1.4.1
ВидеоИдентификатор : 1Формат : AVCФормат/Информация : Advanced Video CodecПрофиль формата : High@L4.1Параметр CABAC формата : ДаПараметр ReFrames формата : 4 кадраИдентификатор кодека : V_MPEG4/ISO/AVCПродолжительность : 1 ч. 29 м.Битрейт : 1942 Кбит/секШирина : 712 пикселейВысота : 400 пикселейСоотношение сторон : 16:9Режим частоты кадров : ПостоянныйЧастота кадров : 25,000 кадров/секЦветовое пространство : YUVСубдискретизация насыщенности : 4:2:0Битовая глубина : 8 битТип развёртки : ПрогрессивнаяБит/(Пиксели*Кадры) : 0.273Размер потока : 1,19 Гбайт (82%)Заголовок : Moondance Alexander 2007 DvdRipБиблиотека кодирования : x264 core 140 r2377 1ca7bb9Настройки программы : cabac=1 / ref=5 / deblock=1:-2:-1 / analyse=0x3:0x133 / me=umh / subme=9 / psy=1 / psy_rd=1.00:0.15 / mixed_ref=1 / me_range=32 / chroma_me=1 / trellis=2 / 8x8dct=1 / cqm=0 / deadzone=21,11 / fast_pskip=0 / chroma_qp_offset=-3 / threads=12 / lookahead_threads=1 / sliced_threads=0 / nr=0 / decimate=1 / interlaced=0 / bluray_compat=0 / constrained_intra=0 / bframes=5 / b_pyramid=1 / b_adapt=2 / b_bias=0 / direct=1 / weightb=1 / open_gop=0 / weightp=2 / keyint=250 / keyint_min=25 / scenecut=40 / intra_refresh=0 / rc_lookahead=50 / rc=2pass / mbtree=1 / bitrate=1942 / ratetol=1.0 / qcomp=0.60 / qpmin=0 / qpmax=69 / qpstep=4 / cplxblur=20.0 / qblur=0.5 / vbv_maxrate=50000 / vbv_bufsize=50000 / nal_hrd=none / filler=0 / ip_ratio=1.40 / aq=1:1.00Язык : EnglishDefault : ДаForced : Нет
Аудио #1Идентификатор : 2Формат : AC-3Формат/Информация : Audio Coding 3Расширение режима : CM (complete main)Параметр Endianness формата : BigИдентификатор кодека : A_AC3Продолжительность : 1 ч. 29 м.Вид битрейта : ПостоянныйБитрейт : 192 Кбит/секКаналы : 2 каналаРасположение каналов : Front: L RЧастота : 48,0 КГцБитовая глубина : 16 битМетод сжатия : С потерямиРазмер потока : 123 Мбайт (8%)Заголовок : Russian AC3 2.0 192 kbpsЯзык : RussianDefault : ДаForced : Нет
Аудио #2Идентификатор : 3Формат : AC-3Формат/Информация : Audio Coding 3Расширение режима : CM (complete main)Параметр Endianness формата : BigИдентификатор кодека : A_AC3Продолжительность : 1 ч. 29 м.Вид битрейта : ПостоянныйБитрейт : 192 Кбит/секКаналы : 2 каналаРасположение каналов : Front: L RЧастота : 48,0 КГцБитовая глубина : 16 битМетод сжатия : С потерямиРазмер потока : 123 Мбайт (8%)Заголовок : English AC3 2.0 192 kbpsЯзык : EnglishDefault : НетForced : Нет
Меню00:00:00.000 : en:100:10:07.520 : en:200:23:06.600 : en:300:34:39.040 : en:400:44:51.360 : en:500:56:00.680 : en:601:07:11.840 : en:701:17:17.040 : en:8
[Профиль] [ЛС]

Создавать темы 06-Авг-2015 22:35 (спустя 3 месяца 12 дней)

Топик был перенесен из форума Фильмы до 2014 года в форум Фильмы до 2012 года
sergej644
 
Кто просматривает тему:

Форум Тема Автор Размер
Metal (Heavy Metal) Артур Беркут - Победителей не судят - 2014, FLAC, (image+cue), lossless sergej644 364 MB
Metal (Heavy Metal) Артур Беркут - Победителей не судят - 2014, MP3, tracks, 320 kbps sergej644 145 MB
Боевики, детективы, триллеры Абдуллаев Чингиз - Алтарь победы [Воробьёва Ирина, 2012, 96 kbps, MP3] sergej644 273 MB
Боевики, детективы, триллеры Акунин Борис - Смерть на брудершафт. Фильма шестая. Гром победы, раздавайся! [Сергей Чонишвили, 2012 г., 128 kbps, MP3] sergej644 194 MB
Кино СССР Бой после победы (Виллен Азаров) [1972, военный, DVDRip-AVC] sergej644 2.87 GB
Разная литература Верхотуров Дмитрий - Сталинская экономика Победы. «Было время – и цены снижали» (2016) FB2 достали все 1 MB
Документальные HD Военный парад, посвященный 70-й годовщине Победы в ВОВ 1941-1945г . Москва (2015.05.09) HDTV [H.264/1080i] (НТВ HD) достали все 5.95 GB
Документальные HD Восход Победы (5 серий из 6) [2013, исторический, HDTV 1080i] TorrentFilm 12.01 GB
Показать сообщения:    

Текущее время: Сегодня 20:03

Часовой пояс: GMT



Вы не можете начинать темы
Вы не можете отвечать на сообщения
Вы не можете редактировать свои сообщения
Вы не можете удалять свои сообщения
Вы не можете голосовать в опросах
Вы не можете прикреплять файлы к сообщениям
Вы не можете скачивать файлы