Победа / Victoria (Роберт Саакянц) [1997, мультфильм, WEBRip]

 
Автор Сообщение

TorrentFilm ®

Пол:

Стаж: 2 года

Сообщений: 7741



Награды: Нет

Торрент-статистика

Создавать темы 01-Янв-2016 00:24

[Цитировать]

Победа / Victoria
Страна: Армения
Жанр: мультфильм
Продолжительность: 00:05:52
Год выпуска: 1997
Перевод: Не требуется
Русские субтитры: нет
Режиссёр: Роберт Саакянц
Описание: Шуточная вариация сюжета о рыцаре, сражающемся с трёхголовым драконом ради освобождения принцессы.
Качество: WEBRip
Формат: AVI
Видео: 1698 kbps, 688х496 (1.387), 25.000 fps, MPEG-4 Visual (XviD)
Аудио: 128 kbps, 44.1 kHz, 2 channels, MPEG Audio (MP3)
Субтитры: отсутствуют

Подробные технические данные

GeneralComplete name : Victoria (1997).aviFormat : AVIFormat/Info : Audio Video InterleaveFile size : 77.1 MiBDuration : 5mn 52sOverall bit rate : 1 836 KbpsWriting application : VirtualDubMod 1.5.10.3 (build 2550/release)Writing library : VirtualDubMod build 2550/release
VideoID : 0Format : MPEG-4 VisualFormat profile : Advanced Simple@L5Format settings, BVOP : 2Format settings, QPel : NoFormat settings, GMC : No warppointsFormat settings, Matrix : CustomCodec ID : XVIDCodec ID/Hint : XviDDuration : 5mn 52sBit rate : 1 698 KbpsWidth : 688 pixelsHeight : 496 pixelsDisplay aspect ratio : 1.387Frame rate : 25.000 fpsColor space : YUVChroma subsampling : 4:2:0Bit depth : 8 bitsScan type : ProgressiveCompression mode : LossyBits/(Pixel*Frame) : 0.199Stream size : 71.4 MiB (92%)Writing library : XviD 65
AudioID : 1Format : MPEG AudioFormat version : Version 1Format profile : Layer 3Mode : Joint stereoMode extension : MS StereoCodec ID : 55Codec ID/Hint : MP3Duration : 5mn 52sBit rate mode : ConstantBit rate : 128 KbpsChannel(s) : 2 channelsSampling rate : 44.1 KHzCompression mode : LossyStream size : 5.38 MiB (7%)Alignment : Split accross interleavesInterleave, duration : 40 ms (1.00 video frame)Interleave, preload duration : 500 msWriting library : LAME3.99rEncoding settings : -m j -V 4 -q 3 -lowpass 17 -b 128

Скриншоты

[Профиль] [ЛС]
Кто просматривает тему:

Форум Тема Автор Размер
Metal (Heavy Metal) Артур Беркут - Победителей не судят - 2014, FLAC, (image+cue), lossless sergej644 364 MB
Metal (Heavy Metal) Артур Беркут - Победителей не судят - 2014, MP3, tracks, 320 kbps sergej644 145 MB
Боевики, детективы, триллеры Абдуллаев Чингиз - Алтарь победы [Воробьёва Ирина, 2012, 96 kbps, MP3] sergej644 273 MB
Боевики, детективы, триллеры Акунин Борис - Смерть на брудершафт. Фильма шестая. Гром победы, раздавайся! [Сергей Чонишвили, 2012 г., 128 kbps, MP3] sergej644 194 MB
Кино СССР Бой после победы (Виллен Азаров) [1972, военный, DVDRip-AVC] sergej644 2.87 GB
Разная литература Верхотуров Дмитрий - Сталинская экономика Победы. «Было время – и цены снижали» (2016) FB2 достали все 1 MB
Документальные HD Военный парад, посвященный 70-й годовщине Победы в ВОВ 1941-1945г . Москва (2015.05.09) HDTV [H.264/1080i] (НТВ HD) достали все 5.95 GB
Документальные HD Восход Победы (5 серий из 6) [2013, исторический, HDTV 1080i] TorrentFilm 12.01 GB
Показать сообщения:    

Текущее время: Сегодня 16:49

Часовой пояс: GMT



Вы не можете начинать темы
Вы не можете отвечать на сообщения
Вы не можете редактировать свои сообщения
Вы не можете удалять свои сообщения
Вы не можете голосовать в опросах
Вы не можете прикреплять файлы к сообщениям
Вы не можете скачивать файлы