Побег / La Carapate (1978) BDRip 1080p | D, P, P2

 
Автор Сообщение

Белочка ®

Пол:

Стаж: 5 лет 1 месяц

Сообщений: 2089



Награды: 1 (Подробнее)

Girls (Количество: 1)
Торрент-статистика

Создавать темы 14-Окт-2014 18:45

[Цитировать]

Информация о фильме
Название: Побег
Оригинальное название: La Carapate
Год выхода: 1978
Жанр: Комедия
Режиссер: Жерар Ури
В ролях: Пьер Ришар, Виктор Лану, Жак Франц, Жен-Пьер Дарра, Робер Дальбан, Клод Броссе, Раймон Бюссьер, Клэр Ришар, Бланш Равалео, Бернар Гранже, Адриен Кайла-Легран
О фильме: Адвокат Дюрок навещает своего клиента в камере смертников. Внезапно начинается массовый бунт, и недотепа бежит вместе с остальными заключенными, спасаясь от пуль полицейских, вместе со своим подзащитным Голаром (Лану), которого полиция считает зачинщиком всех беспорядков. Бесчисленные погони, веселые и пикантные ситуации, общая опасность сближают героев и они становятся друзьями...
В фильме отражены майские события во Франции 1968 года, которые привели к отставке президента Шарля де Голля. В частности, использованы подлинные записи обращений президента по телевидению. В фильме также показан вылет Шарля де Голля на вертолёте в Баден-Баден, в расположение оккупационных войск Франции в ФРГ, которое имело место 29 мая 1968 года.
В отличие от «Укола зонтиком», «Побег» в советском прокате практически не был затронут цензурными вырезками — сократили лишь некоторые переходные сцены, в частности мытарство героев на вокзале в попытке получить деньги за билет. Это при том, что в фильме есть сцены стриптиза и супружеской измены. Также стоит отметить высокий уровень советского дубляжа, добавившего экспрессии в речь героев и хлёсткости в их диалоги.

Страна: Франция
Студия: Gaumont
Продолжительность: 01:39:47
Перевод: Профессиональный (дублированный) Советский дубляж - Киностудия им. М.Горького
Перевод: Профессиональный (многоголосый закадровый) Союз Видео, К1
Перевод: Профессиональный (двухголосый закадровый) 1+1
Файл
Качество: BDRip 1080p
Формат: MKV
Видео кодек: H264
Аудио кодек: AC3
Видео: MPEG4 Video (H264), 1792x1080, 29.97fps, 14.0 Mbps
Аудио #1: Русский: Dolby AC3, 48000 Hz, 2ch, 192 kbps |Дубляж, Киностудия им. М.Горького|
Аудио #2: Русский: Dolby AC3, 48000 Hz, 2ch, 192 kbps |Многоголосый закадровый, Союз Видео|
Аудио #3: Украинский: Dolby AC3, 48000 Hz, 2ch, 192 kbps |Многоголосый закадровый, К1|
Аудио #4: Украинский: Dolby AC3, 48000 Hz, 2ch, 192 kbps |Двухголосый закадровый, 1+1|
Аудио #5: Французский: Dolby AC3, 48000 Hz, 2ch, 384 kbps
Субтитры: Русские
Сэмпл

MediaInfo:

General
Unique ID : 222739852711903779614352521628352113502 (0xA792229D6CFBBB1FBBFCF543CB49EB5E)
Complete name : F:DVDRip1978 Побег.mkv
Format : Matroska
Format version : Version 4 / Version 2
File size : 10.6 GiB
Duration : 1h 39mn
Overall bit rate : 15.2 Mbps
Encoded date : UTC 2014-10-14 12:33:09
Writing application : mkvmerge v7.1.0 ('Good Love') 32bit built on Jul 27 2014 12:59:18
Writing library : libebml v1.3.0 + libmatroska v1.4.1
DURATION : 01:39:47.008000000
NUMBER_OF_FRAMES : 187094
NUMBER_OF_BYTES : 287376384
_STATISTICS_WRITING_APP : mkvmerge v7.1.0 ('Good Love') 32bit built on Jul 27 2014 12:59:18
_STATISTICS_WRITING_DATE_UTC : 2014-10-14 12:33:09
_STATISTICS_TAGS : BPS DURATION NUMBER_OF_FRAMES NUMBER_OF_BYTES
Video
ID : 1
Format : AVC
Format/Info : Advanced Video Codec
Format profile : High@L4.1
Format settings, CABAC : Yes
Format settings, ReFrames : 3 frames
Codec ID : V_MPEG4/ISO/AVC
Duration : 1h 39mn
Bit rate : 14.0 Mbps
Width : 1 792 pixels
Height : 1 080 pixels
Display aspect ratio : 1.659
Frame rate mode : Constant
Frame rate : 29.970 fps
Color space : YUV
Chroma subsampling : 4:2:0
Bit depth : 8 bits
Scan type : Progressive
Bits/(Pixel*Frame) : 0.241
Stream size : 9.56 GiB (90%)
Title : 1978 Побег / Rip by renta23
Writing library : x264 core 125 r2208 d9d2288
Encoding settings : cabac=1 / ref=4 / deblock=1:-1:-1 / analyse=0x3:0x133 / me=umh / subme=11 / psy=1 / psy_rd=1.15:0.25 / mixed_ref=1 / me_range=24 / chroma_me=1 / trellis=2 / 8x8dct=1 / cqm=0 / deadzone=21,11 / fast_pskip=0 / chroma_qp_offset=-4 / threads=12 / lookahead_threads=2 / sliced_threads=0 / nr=0 / decimate=1 / interlaced=0 / bluray_compat=0 / constrained_intra=0 / bframes=6 / b_pyramid=1 / b_adapt=2 / b_bias=0 / direct=3 / weightb=1 / open_gop=0 / weightp=2 / keyint=250 / keyint_min=25 / scenecut=40 / intra_refresh=0 / rc_lookahead=50 / rc=2pass / mbtree=1 / bitrate=14000 / ratetol=1.0 / qcomp=0.60 / qpmin=0 / qpmax=69 / qpstep=4 / cplxblur=20.0 / qblur=0.5 / ip_ratio=1.40 / aq=2:1.00
Language : French
Default : Yes
Forced : No
Audio #1
ID : 2
Format : AC-3
Format/Info : Audio Coding 3
Mode extension : CM (complete main)
Format settings, Endianness : Big
Codec ID : A_AC3
Duration : 1h 39mn
Bit rate mode : Constant
Bit rate : 192 Kbps
Channel(s) : 2 channels
Channel positions : Front: L R
Sampling rate : 48.0 KHz
Bit depth : 16 bits
Compression mode : Lossy
Stream size : 137 MiB (1%)
Title : Дубляж, Киностудия им. М.Горького
Language : Russian
Default : Yes
Forced : No
Audio #2
ID : 3
Format : AC-3
Format/Info : Audio Coding 3
Mode extension : CM (complete main)
Format settings, Endianness : Big
Codec ID : A_AC3
Duration : 1h 39mn
Bit rate mode : Constant
Bit rate : 192 Kbps
Channel(s) : 2 channels
Channel positions : Front: L R
Sampling rate : 48.0 KHz
Bit depth : 16 bits
Compression mode : Lossy
Stream size : 137 MiB (1%)
Title : Многоголосый закадровый, Союз Видео
Language : Russian
Default : No
Forced : No
Audio #3
ID : 4
Format : AC-3
Format/Info : Audio Coding 3
Mode extension : CM (complete main)
Format settings, Endianness : Big
Codec ID : A_AC3
Duration : 1h 39mn
Bit rate mode : Constant
Bit rate : 192 Kbps
Channel(s) : 2 channels
Channel positions : Front: L R
Sampling rate : 48.0 KHz
Bit depth : 16 bits
Compression mode : Lossy
Stream size : 137 MiB (1%)
Title : Многоголосый закадровый, К1
Language : Ukrainian
Default : No
Forced : No
Audio #4
ID : 5
Format : AC-3
Format/Info : Audio Coding 3
Mode extension : CM (complete main)
Format settings, Endianness : Big
Codec ID : A_AC3
Duration : 1h 39mn
Bit rate mode : Constant
Bit rate : 192 Kbps
Channel(s) : 2 channels
Channel positions : Front: L R
Sampling rate : 48.0 KHz
Bit depth : 16 bits
Compression mode : Lossy
Stream size : 137 MiB (1%)
Title : Двухголосый закадровый, 1+1
Language : Ukrainian
Default : No
Forced : No
Audio #5
ID : 7
Format : AC-3
Format/Info : Audio Coding 3
Mode extension : CM (complete main)
Format settings, Endianness : Big
Codec ID : A_AC3
Duration : 1h 39mn
Bit rate mode : Constant
Bit rate : 384 Kbps
Channel(s) : 2 channels
Channel positions : Front: L R
Sampling rate : 48.0 KHz
Bit depth : 16 bits
Compression mode : Lossy
Stream size : 274 MiB (3%)
Title : Французский
Language : French
Default : No
Forced : No
Text
ID : 6
Format : PGS
Muxing mode : zlib
Codec ID : S_HDMV/PGS
Codec ID/Info : The same subtitle format used on BDs/HD-DVDs
Language : Russian
Default : Yes
Forced : No
Menu
00:00:00.000 : en:Chapter 01
00:08:22.333 : en:Chapter 02
00:16:58.291 : en:Chapter 03
00:24:57.416 : en:Chapter 04
00:33:31.291 : en:Chapter 05
00:42:03.458 : en:Chapter 06
00:50:34.083 : en:Chapter 07
00:58:49.625 : en:Chapter 08
01:07:00.250 : en:Chapter 09
01:15:10.708 : en:Chapter 10
01:23:54.416 : en:Chapter 11
01:30:01.500 : en:Chapter 12
-
[Профиль] [ЛС]
Показать сообщения:    

Текущее время: Сегодня 23:29

Часовой пояс: GMT



Вы не можете начинать темы
Вы не можете отвечать на сообщения
Вы не можете редактировать свои сообщения
Вы не можете удалять свои сообщения
Вы не можете голосовать в опросах
Вы не можете прикреплять файлы к сообщениям
Вы не можете скачивать файлы