Побег из Вегаса / Get Him to the Greek (Николас Столлер / Nicholas Stoller) [2010, комедия, HDRip] [Unrated] Dub + Rus Subs

 
Автор Сообщение

TorrentFilm ®

Пол:

Стаж: 2 года

Сообщений: 7741



Награды: Нет

Торрент-статистика

Создавать темы 12-Июл-2015 00:07

[Цитировать]

Побег из Вегаса / Get Him to the GreekБез купюр / Unrated Cut
Страна: США
Жанр: комедия
Год выпуска: 2010
Продолжительность: 01:53:51
Перевод: Профессиональный (полное дублирование) со вставками оригинала на расширенные моменты
Субтитры: русские (el_brujo на расширенные моменты)
Оригинальная аудиодорожка: нет
Режиссер: Николас Столлер / Nicholas Stoller
В ролях: Джона Хилл, Расселл Брэнд, Шон «Пи Дидди» Комбс, Роуз Бирн, Колм Мини, Тайлер МакКинни, Зои Сэлмон, Ларс Ульрих, Марио Лопес, Пинк, Билли Буш, Курт Лодер, Кристина Агилера и др.
Описание: Аарон Гринберг получил работу, о которой мечтал всю жизнь. Но он никак не ожидал, что его первым заданием будет привезти из Лондона в Лос-Анджелес строптивую рок-звезду. Альдус Сноу — бывший кумир миллионов, знаменитый рокер и прекрасный музыкант, который после продолжительного пике собирается вернуться на большую сцену. Но его характер испорчен алкоголем и развращен деньгами настолько, что любая промелькнувшая юбка может увлечь его в водоворот зубодробительных приключений, в которых теряется само понятие о времени…
Sample

Работа с видео: whip93
Качество видео: HDRip (исх. Pobeg.iz.Vegasa.2010.x264.BDRip(720p) с Кинозала)
Формат видео: AVI
Видео: Xvid 688x368 23.976fps 1441kbps
Аудио: Dolby AC3 48kHz 6ch 384kbps
Формат субтитров: hardsub (неотключаемые)

MediaInfo

General
Complete name : G:\Get.Him.to.the.Greek.Extended.Cut.2010.HDRip.-whip93.avi
Format : AVI
Format/Info : Audio Video Interleave
File size : 1.46 GiB
Duration : 1h 53mn
Overall bit rate : 1 835 Kbps
Writing application : VirtualDubMod 1.5.10.3 | www.virtualdub-fr.org || (build 2550/release)
Writing library : VirtualDubMod build 2550/release
Video
ID : 0
Format : MPEG-4 Visual
Format profile : Advanced Simple@L5
Format settings, BVOP : 1
Format settings, QPel : No
Format settings, GMC : No warppoints
Format settings, Matrix : Default (MPEG)
Codec ID : XVID
Codec ID/Hint : XviD
Duration : 1h 53mn
Bit rate : 1 441 Kbps
Width : 688 pixels
Height : 368 pixels
Display aspect ratio : 1.85:1
Frame rate : 23.976 fps
Color space : YUV
Chroma subsampling : 4:2:0
Bit depth : 8 bits
Scan type : Progressive
Compression mode : Lossy
Bits/(Pixel*Frame) : 0.237
Stream size : 1.15 GiB (79%)
Writing library : XviD 73
Audio
ID : 1
Format : AC-3
Format/Info : Audio Coding 3
Mode extension : CM (complete main)
Format settings, Endianness : Big
Codec ID : 2000
Duration : 1h 53mn
Bit rate mode : Constant
Bit rate : 384 Kbps
Channel(s) : 6 channels
Channel positions : Front: L C R, Side: L R, LFE
Sampling rate : 48.0 KHz
Bit depth : 16 bits
Compression mode : Lossy
Stream size : 313 MiB (21%)
Alignment : Split accross interleaves
Interleave, duration : 42 ms (1.00 video frame)
Interleave, preload duration : 500 ms

Скриншоты

[Профиль] [ЛС]

Создавать темы 06-Авг-2015 22:25 (спустя 25 дней)

Топик был перенесен из форума Фильмы до 2014 года в форум Фильмы до 2012 года
sergej644
 

Создавать темы 12-Июн-2016 07:55 (спустя 11 месяцев)

Топик был перенесен из форума Фильмы 2011 года в форум Фильмы 2010 года
Russian Mafia
 
Показать сообщения:    

Текущее время: Сегодня 17:42

Часовой пояс: GMT



Вы не можете начинать темы
Вы не можете отвечать на сообщения
Вы не можете редактировать свои сообщения
Вы не можете удалять свои сообщения
Вы не можете голосовать в опросах
Вы не можете прикреплять файлы к сообщениям
Вы не можете скачивать файлы