Побег за мечтой (2015) WEB-DLRip-AVC

 
Автор Сообщение

достали все ®

Пол:

Стаж: 1 год 8 месяцев

Сообщений: 6524



Награды: 12 (Подробнее)

Top Releaser 2 (Количество: 1) Mega Seeder 3 (Количество: 1) Mega Releaser 2 (Количество: 1)
Торрент-статистика

Создавать темы 22-Май-2016 03:08

[Цитировать]

Информация о фильме
Название: Побег за мечтой
Год выхода: 2015 г.
Жанр: Боевик, криминал, драма
Режиссер: Константин Тищенко, Юрий Сысоев, Владимир Мистюков
В ролях: Владимир Вдовиченков, Мирослава Карпович, Андрей Чадов, Денис Косяков, Антон Буглак, Александр Кононец, Прохор Чеховской, Александр Фурсенко, Зоя Кайдановская, Алексей Фатеев
О фильме:
Сюжет картины рассказывает о трёх мужчинах, каждый из которых совсем не похож на остальных по характеру. Молодой писатель, который не может опубликовать свой первый шедевр, оказывается в крайне непростой ситуации, из которой непросто выбраться. Второй герой фильма - врач, не представляющий, как можно пойти на сделку с совестью. Он часто не находит понимания со стороны своего циничного окружения. Третий персонаж - адвокат, который наивно полагает, что из любой ситуации можно выбраться при помощи денег. Он постоянно даёт взятки, не считая это чем-то зазорным. Каждого из них ждёт множество испытаний, и не все персонажи пройдут их с честью.

Страна: Россия
Продолжительность: 01:15:46
Перевод: Не требуется
Файл
Качество: WEB-DLRip (AVC)
Видео: MPEG-4 AVC, 1901 Кбит/с, 1024x550
Аудио: AC3, 2 ch, 384 Кбит/с

МИ

General
Unique ID : 209810774508229408662439906707408363337 (0x9DD815D80F165DB79E6A4A1E65FB1F49)
Complete name : C:Za.mechtoy.2015.O.WEB-DLRip.AVC.ExKinoRay.mkv
Format : Matroska
Format version : Version 4 / Version 2
File size : 1.21 GiB
Duration : 1h 15mn
Overall bit rate : 2 286 Kbps
Movie name : Побег за мечтой 2015 from ExKinoRay
Encoded date : UTC 2016-05-21 21:38:13
Writing application : mkvmerge v6.6.0 ('The Edge Of The In Between') built on Dec 1 2013 17:55:00
Writing library : libebml v1.3.0 + libmatroska v1.4.1
Video
ID : 1
Format : AVC
Format/Info : Advanced Video Codec
Format profile : High@L4.1
Format settings, CABAC : Yes
Format settings, ReFrames : 12 frames
Codec ID : V_MPEG4/ISO/AVC
Duration : 1h 15mn
Bit rate : 1 901 Kbps
Width : 1 024 pixels
Height : 550 pixels
Display aspect ratio : 1.85:1
Frame rate mode : Constant
Frame rate : 25.000 fps
Color space : YUV
Chroma subsampling : 4:2:0
Bit depth : 8 bits
Scan type : Progressive
Bits/(Pixel*Frame) : 0.135
Stream size : 1 006 MiB (81%)
Title : Enigma
Writing library : x264 core 142 r2431 ac76440
Encoding settings : cabac=1 / ref=12 / deblock=1:-2:-2 / analyse=0x3:0x113 / me=umh / subme=10 / psy=1 / psy_rd=1.05:0.15 / mixed_ref=1 / me_range=32 / chroma_me=1 / trellis=2 / 8x8dct=1 / cqm=0 / deadzone=21,11 / fast_pskip=0 / chroma_qp_offset=-3 / threads=12 / lookahead_threads=3 / sliced_threads=0 / nr=0 / decimate=0 / interlaced=0 / bluray_compat=0 / constrained_intra=0 / bframes=10 / b_pyramid=2 / b_adapt=2 / b_bias=0 / direct=3 / weightb=1 / open_gop=0 / weightp=2 / keyint=250 / keyint_min=25 / scenecut=40 / intra_refresh=0 / rc_lookahead=40 / rc=2pass / mbtree=0 / bitrate=1901 / ratetol=1.0 / qcomp=0.60 / qpmin=0 / qpmax=51 / qpstep=4 / cplxblur=20.0 / qblur=0.5 / vbv_maxrate=50000 / vbv_bufsize=62500 / nal_hrd=none / filler=0 / ip_ratio=1.40 / pb_ratio=1.30 / aq=1:1.00
Default : Yes
Forced : No
Color primaries : BT.709
Transfer characteristics : BT.709
Matrix coefficients : BT.709
Audio
ID : 2
Format : AC-3
Format/Info : Audio Coding 3
Mode extension : CM (complete main)
Format settings, Endianness : Big
Codec ID : A_AC3
Duration : 1h 15mn
Bit rate mode : Constant
Bit rate : 384 Kbps
Channel(s) : 2 channels
Channel positions : Front: L R
Sampling rate : 48.0 KHz
Bit depth : 16 bits
Compression mode : Lossy
Stream size : 208 MiB (17%)
Language : Russian
Default : Yes
Forced : No

Автор релиза:
[Профиль] [ЛС]
Показать сообщения:    

Текущее время: Сегодня 14:01

Часовой пояс: GMT



Вы не можете начинать темы
Вы не можете отвечать на сообщения
Вы не можете редактировать свои сообщения
Вы не можете удалять свои сообщения
Вы не можете голосовать в опросах
Вы не можете прикреплять файлы к сообщениям
Вы не можете скачивать файлы