Плохой лейтенант / The Bad Lieutenant: Port of Call New Orleans (Вернер Херцог / Werner Herzog) [2009, США, драма, криминал, BDRip] AVO (Немахов)

 
Автор Сообщение

TorrentFilm ®

Пол:

Стаж: 2 года

Сообщений: 7741



Награды: Нет

Торрент-статистика

Создавать темы 06-Апр-2016 00:09

[Цитировать]

Плохой лейтенант / The Bad Lieutenant: Port of Call New Orleans Страна: США
Жанр: драма, криминал
Год выпуска: 2009
Продолжительность: 02:02:09
Перевод: Авторский (одноголосый закадровый) Юрий Немахов
Cубтитры: нет
Режиссер: Вернер Херцог / Werner Herzog
В ролях: Николас Кейдж, Ева Мендес, Вэл Килмер, Файруза Балк, Иксзибит, Шон Хэтоси, Дженнифер Кулидж, Том Бауэр, Вонди Куртис-Холл, Брэд Дуриф
Описание: Терренс МакДонах — потомственный полицейский, живущий в Новом Орлеане. Его уважает начальство и коллеги. Но у Терренса есть и «другое лицо». Он замешан в воровстве и торговле наркотиками, да и сам является наркоманом. Пристрастия этого «плохого полицейского» — секс и азартные игры. Начальство поручает МакДонаху новое сложное дело — расследовать зверское убийство сенегальских эмигрантов. Сможет ли лейтенант совладать со своей «темной, порочной» стороной и выполнить задание?

Качество видео: [url=viewtopic.php?t=2846326]BDRip[/url]
Формат видео: AVI
Видео кодек: XviD
Аудио кодек: AC3
Видео: 720x384 (1.88:1), 23.976 fps, XviD build 50 ~2100 kbps avg, 0.32 bit/pixel
Аудио: 48 kHz, AC3 Dolby Digital, 3/2 (L,C,R,l,r) + LFE ch, ~448 kbps

Доп.инфоза видеоряд спасибо [b][color=green]kingsize87[/color][/b]MediaInfo

Полное имя : Плохой лейтенант 2009.avi
Формат : AVI
Формат/Информация : Audio Video Interleave
Профиль формата : OpenDML
Размер файла : 2,18 Гбайт
Продолжительность : 2 ч. 2 м.
Общий поток : 2555 Кбит/сек
Программа кодирования : VirtualDubMod 1.5.10.3 | www.virtualdub-fr.org || (build 2550/release)
Библиотека кодирования : VirtualDubMod build 2550/release
Видео
Идентификатор : 0
Формат : MPEG-4 Visual
Профиль формата : Advanced Simple@L5
Параметр BVOP формата : 1
Параметр QPel формата : Нет
Параметр GMC формата : Без точки перехода
Параметр матрицы формата : Выборочная
Идентификатор кодека : XVID
Идентификатор кодека/Подсказка : XviD
Продолжительность : 2 ч. 2 м.
Битрейт : 2095 Кбит/сек
Ширина : 720 пикселей
Высота : 384 пикселя
Соотношение сторон : 1,85:1
Частота кадров : 23,976 кадра/сек
Цветовое пространство : YUV
Субдискретизация насыщенности : 4:2:0
Битовая глубина : 8 бит
Тип развёртки : Прогрессивная
Метод сжатия : С потерями
Бит/(Пиксели*Кадры) : 0.316
Размер потока : 1,79 Гбайт (82%)
Библиотека кодирования : XviD 1.2.1 (UTC 2008-12-04)
Аудио
Идентификатор : 1
Формат : AC-3
Формат/Информация : Audio Coding 3
Расширение режима : CM (complete main)
Параметр Endianness формата : Big
Идентификатор кодека : 2000
Продолжительность : 2 ч. 2 м.
Вид битрейта : Постоянный
Битрейт : 448 Кбит/сек
Каналы : 6 каналов
Расположение каналов : Front: L C R, Side: L R, LFE
Частота : 48,0 КГц
Метод сжатия : С потерями
Размер потока : 391 Мбайт (18%)
Выравнивание : Разделение по промежуткам
Продолжительность промежутка : 42 мс. (1,00 видеокадр)
Время предзагрузки промежутка : 500 мс.

Скриншоты

[Профиль] [ЛС]

Создавать темы 12-Июн-2016 07:56 (спустя 2 месяца 6 дней)

Топик был перенесен из форума Фильмы 2011 года в форум Фильмы 2009 года
Russian Mafia
 
Кто просматривает тему:

Форум Тема Автор Размер
Фильмы (HD DVD, Blu-ray и BDRemux) Александр и ужасный, кошмарный, нехороший, очень плохой день / Alexander (Мигель Артета) [2014 г., Комедия, семейный, Blu-Ray (1080p)] Magnat 27.54 GB
Фильмы (HD Rips | 720p, 1080p) Александр и ужасный, кошмарный, нехороший, очень плохой день / Alexander and the Terrible (2014) BDRip 720p | Лицензия sergej644 2.01 GB
Фильмы 2014 года Александр и ужасный, кошмарный, нехороший, очень плохой день / Alexander and the Terrible, Horrible, No Good, Very Bad Day (2014) HDRip | Чистый звук sergej644 1.37 GB
Фильмы 2014 года Александр и ужасный, кошмарный, нехороший, очень плохой день / Alexander and the Terrible, Horrible, No Good, Very Bad Day (2014) WEBRip | Чистый звук BOSS 1.37 GB
Фильмы 2014 года Александр и ужасный, кошмарный, нехороший, очень плохой день / Alexander and the Terrible, Horrible, No Good, Very Bad Day (Мигель Артета / Miguel Arteta) [2014, США, комедия, семейный, WEB-DLRip] Dub TorrentFilm 700 MB
Наши концерты Винтаж - История плохой девочки (2013) DVDRip от MediaClub sergej644 1.09 GB
Фильмы (HD Rips | 720p, 1080p) Плохое поведение / Behaving Badly (2014) BDRip 720p | P достали все 4.62 GB
Фильмы 2014 года Плохое поведение / Behaving Badly (2014) HDRip | P BOSS 1.46 GB
Показать сообщения:    

Текущее время: Сегодня 14:44

Часовой пояс: GMT



Вы не можете начинать темы
Вы не можете отвечать на сообщения
Вы не можете редактировать свои сообщения
Вы не можете удалять свои сообщения
Вы не можете голосовать в опросах
Вы не можете прикреплять файлы к сообщениям
Вы не можете скачивать файлы