Плохие слова / Bad Words (2013) BDRip 720p от KinoRay | Чистый звук, L1

 
Автор Сообщение

sergej644 ®

Пол:

Стаж: 4 года 11 месяцев

Сообщений: 6046

Откуда: Soviet Union



Награды: Нет

Торрент-статистика

Создавать темы 08-Фев-2015 21:08

[Цитировать]

Информация о фильме
Название: Плохие слова
Оригинальное название: Bad Words
Год выхода: 2014
Жанр: Комедия
Режиссер: Джейсон Бэйтмен
В ролях: Джейсон Бейтмен, Эллисон Джэнни, Кэтрин Хан, Рэйчел Харрис, Бен Фэлкоун, Джудит Хоаг, Филип Бэйкер Холл, Бет Грант, Патриция Белчер, Роэн Чанд.
О фильме: Фильм рассказывает о мужчине, которому тридцать с лишним лет и который является внебрачным сыном организатора национальных конкурсов по орфографии. В связи с этим им движет чувство мести своему родителю, из-за чего он хочет попасть на это соревнование и попадает на него найдя в регламенте конкурса лазейку. Но в конечном итоге это состязание по правописанию знакомит нашего главного героя с молодым индийским участником, подружившись с которым, на него как будто бы сходит прозрение и он начинает смотреть на мир совершенно другими глазами.

Страна: США / Aggregate Films, Darko Entertainment
Продолжительность: 01:29:03
Перевод: Дублированный (чистый звук, PlayFamily), любительский одноголосый (Lord32x)
Дата релиза: 25.09.2014
Файл
Кодек: MPEG-4 AVC
Качество: BDRip (720p)
Видео: 1280x534, 6867 Кбит/с
Звук: Русский (AC3, 2 ch, 192 Кбит/с), (AC3, 6 ch ,448 Кбит/c), английский (AC3, 6 ch, 640 Кбит/c)
Субтитры: Русские, английские, испанские, французские

Скриншоты

За рип спасибо TayTo!
SOURCE.........: Bad Words 2013 1080p Blu-ray AVC DTS-HD MA 5.1-LAZERS (Thank BodoiCuHo!)
ENCODER.......: hungdaita@TayTO
SUBTiTLES......: Russian (Notabenoid @ er45ty, Karmishina, reutov88, Changethis, KillKick, NineDee, Dash_S13) English, English SDH, Spanish, French
Aудио#1: Russian: 48 kHz, AC3 Dolby Digital, 2/0 (L,R) ch, ~192 kbps |Дубляж, PlayFamily|
Aудио#2: Russian: 48 kHz, AC3 Dolby Digital, 3/2 (L,C,R,l,r) + LFE ch, ~448 kbps |Одноголосый закадровый, Lord32x|
Aудио#3: English: 48 kHz, AC3 Dolby Digital, 3/2 (L,C,R,l,r) + LFE ch, ~640 kbps
Aудио#4: English: 48 kHz, AAC, 2/0 (L,R) ch, ~144 kbps |Commentary with Director Jason Bateman|
Сохранены оригинальные чаптеры, как на Blu-Ray
Сборка рипа: rem3
Релиз группы: KinoRay

MI

Общее
Уникальный идентификатор : 208945164406692171053046881476445857669 (0x9D315FF89110B494BFAB7EBBD6ADE785)
Полное имя : F:Bad.Words.2013.720p.BluRay.Rus.Eng.x264-TayTO.mkv
Формат : Matroska
Версия формата : Version 2
Размер файла : 5,24 Гбайт
Продолжительность : 1 ч. 29 м.
Общий поток : 8430 Кбит/сек
Название фильма : Bad.Words.2013.720p.BluRay.DD5.1.x264-TayTO
Дата кодирования : UTC 2014-09-25 12:40:59
Программа кодирования : mkvmerge v3.3.0 ('Language') built on Mar 24 2010 14:59:24
Библиотека кодирования : libebml v0.8.0 + libmatroska v0.9.0
DURATION : 01:28:06.364000000
NUMBER_OF_FRAMES : 1341
NUMBER_OF_BYTES : 49696
_STATISTICS_WRITING_APP : mkvmerge v7.0.0 ('Where We Going') 64bit built on Jun 9 2014 15:16:27
_STATISTICS_WRITING_DATE_UTC : 2014-07-01 11:58:26
_STATISTICS_TAGS : BPS DURATION NUMBER_OF_FRAMES NUMBER_OF_BYTES
Видео
Идентификатор : 1
Формат : AVC
Формат/Информация : Advanced Video Codec
Профиль формата : High@L4.1
Параметр CABAC формата : Да
Параметр ReFrames формата : 12 кадров
Идентификатор кодека : V_MPEG4/ISO/AVC
Продолжительность : 1 ч. 29 м.
Ширина : 1280 пикселей
Высота : 534 пикселя
Соотношение сторон : 2,40:1
Режим частоты кадров : Постоянный
Частота кадров : 23,976 кадра/сек
Цветовое пространство : YUV
Субдискретизация насыщенности : 4:2:0
Битовая глубина : 8 бит
Тип развёртки : Прогрессивная
Библиотека кодирования : x264 core 142 r2431kMod ac76440
Настройки программы : cabac=1 / ref=12 / deblock=1:-3:-3 / analyse=0x3:0x133 / me=tesa / subme=11 / psy=1 / fade_compensate=0.00 / psy_rd=1.00:0.00 / mixed_ref=1 / me_range=24 / chroma_me=1 / trellis=2 / 8x8dct=1 / cqm=0 / deadzone=21,11 / fast_pskip=0 / chroma_qp_offset=-2 / threads=12 / lookahead_threads=2 / sliced_threads=0 / nr=0 / decimate=1 / interlaced=0 / bluray_compat=0 / constrained_intra=0 / fgo=0 / bframes=9 / b_pyramid=2 / b_adapt=2 / b_bias=0 / direct=3 / weightb=1 / open_gop=0 / weightp=2 / keyint=250 / keyint_min=23 / scenecut=40 / intra_refresh=0 / rc=crf / mbtree=0 / crf=16.3000 / qcomp=0.65 / qpmin=0 / qpmax=69 / qpstep=4 / ip_ratio=1.30 / pb_ratio=1.20 / aq=1:0.85
Язык : English
Default : Нет
Forced : Нет
Коэффициенты матрицы : BT.709
DURATION : 01:29:02.629000000
NUMBER_OF_FRAMES : 128095
NUMBER_OF_BYTES : 4677810612
_STATISTICS_WRITING_APP : mkvmerge v7.0.0 ('Where We Going') 64bit built on Jun 9 2014 15:16:27
_STATISTICS_WRITING_DATE_UTC : 2014-07-01 11:58:26
_STATISTICS_TAGS : BPS DURATION NUMBER_OF_FRAMES NUMBER_OF_BYTES
Аудио #1
Идентификатор : 2
Формат : AC-3
Формат/Информация : Audio Coding 3
Расширение режима : CM (complete main)
Параметр Endianness формата : Big
Идентификатор кодека : A_AC3
Продолжительность : 1 ч. 29 м.
Вид битрейта : Постоянный
Битрейт : 192 Кбит/сек
Каналы : 2 канала
Расположение каналов : Front: L R
Частота : 48,0 КГц
Битовая глубина : 16 бит
Метод сжатия : С потерями
Размер потока : 122 Мбайт (2%)
Заголовок : AC3 2.0 @ 192 kbps - Dub, PlayFamily
Язык : Russian
Default : Да
Forced : Нет
Аудио #2
Идентификатор : 3
Формат : AC-3
Формат/Информация : Audio Coding 3
Расширение режима : CM (complete main)
Параметр Endianness формата : Big
Идентификатор кодека : A_AC3
Продолжительность : 1 ч. 29 м.
Вид битрейта : Постоянный
Битрейт : 448 Кбит/сек
Каналы : 6 каналов
Расположение каналов : Front: L C R, Side: L R, LFE
Частота : 48,0 КГц
Битовая глубина : 16 бит
Метод сжатия : С потерями
Размер потока : 285 Мбайт (5%)
Заголовок : AC3 5.1 @ 448 kbps - L1, Lord32x
Язык : Russian
Default : Нет
Forced : Нет
Аудио #3
Идентификатор : 4
Формат : AC-3
Формат/Информация : Audio Coding 3
Расширение режима : CM (complete main)
Параметр Endianness формата : Big
Идентификатор кодека : A_AC3
Продолжительность : 1 ч. 29 м.
Вид битрейта : Постоянный
Битрейт : 640 Кбит/сек
Каналы : 6 каналов
Расположение каналов : Front: L C R, Side: L R, LFE
Частота : 48,0 КГц
Битовая глубина : 16 бит
Метод сжатия : С потерями
Размер потока : 408 Мбайт (8%)
Язык : English
Default : Нет
Forced : Нет
Аудио #4
Идентификатор : 5
Формат : AAC
Формат/Информация : Advanced Audio Codec
Профиль формата : LC
Идентификатор кодека : A_AAC
Продолжительность : 1 ч. 29 м.
Каналы : 2 канала
Расположение каналов : Front: L R
Частота : 48,0 КГц
Метод сжатия : С потерями
Задержка видео : 9 мс.
Заголовок : Commentary with Director Jason Bateman
Язык : English
Default : Нет
Forced : Нет
Текст #1
Идентификатор : 6
Формат : UTF-8
Идентификатор кодека : S_TEXT/UTF8
Идентификатор кодека/Информация : UTF-8 Plain Text
Заголовок : Russian (Notabenoid @ er45ty, Karmishina, reutov88, Changethis, KillKick, NineDee, Dash_S13)
Язык : Russian
Default : Да
Forced : Нет
Текст #2
Идентификатор : 7
Формат : UTF-8
Идентификатор кодека : S_TEXT/UTF8
Идентификатор кодека/Информация : UTF-8 Plain Text
Язык : English
Default : Нет
Forced : Нет
Текст #3
Идентификатор : 8
Формат : UTF-8
Идентификатор кодека : S_TEXT/UTF8
Идентификатор кодека/Информация : UTF-8 Plain Text
Заголовок : SDH
Язык : English
Default : Нет
Forced : Нет
Текст #4
Идентификатор : 9
Формат : UTF-8
Идентификатор кодека : S_TEXT/UTF8
Идентификатор кодека/Информация : UTF-8 Plain Text
Язык : Spanish
Default : Нет
Forced : Нет
Текст #5
Идентификатор : 10
Формат : UTF-8
Идентификатор кодека : S_TEXT/UTF8
Идентификатор кодека/Информация : UTF-8 Plain Text
Язык : French
Default : Нет
Forced : Нет
Меню #1
00:00:00.000 : en:00:00:00.000
00:05:48.223 : en:00:05:48.223
00:11:16.426 : en:00:11:16.426
00:14:19.984 : en:00:14:19.984
00:19:31.837 : en:00:19:31.837
00:24:01.690 : en:00:24:01.690
00:27:12.130 : en:00:27:12.130
00:32:05.423 : en:00:32:05.423
00:36:06.915 : en:00:36:06.915
00:40:09.532 : en:00:40:09.532
00:45:48.204 : en:00:45:48.204
00:48:37.832 : en:00:48:37.832
00:55:09.431 : en:00:55:09.431
01:00:34.589 : en:01:00:34.589
01:05:42.438 : en:01:05:42.438
01:08:21.556 : en:01:08:21.556
01:12:16.123 : en:01:12:16.123
01:17:00.533 : en:01:17:00.533
01:21:13.827 : en:01:21:13.827
01:25:53.273 : en:01:25:53.273
Меню #2
00:00:00.054 : en:00:00:00.054
Релиз от:
[Профиль] [ЛС]
Показать сообщения:    

Текущее время: Сегодня 05:20

Часовой пояс: GMT



Вы не можете начинать темы
Вы не можете отвечать на сообщения
Вы не можете редактировать свои сообщения
Вы не можете удалять свои сообщения
Вы не можете голосовать в опросах
Вы не можете прикреплять файлы к сообщениям
Вы не можете скачивать файлы