Плохие парни 2 / Bad Boys II (2003) BDRip 1080p | 4K Remastered | D

 
Автор Сообщение

BOSS ®

Пол:

Стаж: 2 года 1 месяц

Сообщений: 3735

Откуда: ODESSA



Награды: 20 (Подробнее)

Mega Seeder 4 (Количество: 1) Top Seeder 3 (Количество: 1) Top Keeper 1 (Количество: 1)
Торрент-статистика

Создавать темы 26-Дек-2015 16:39

[Цитировать]

Информация о фильме
Название: Плохие парни 2
Оригинальное: Bad Boys II
Год выхода: 2003
Выпущено: Columbia Pictures Corporation, Don Simpson / Jerry Bruckheimer Films
Страна: США
Жанр: Боевик, триллер, комедия, криминал
Продолжительность: 02:26:44
Перевод: Дублированный
Режиссер: Майкл Бэй
В ролях: Уилл Смит, Мартин Лоуренс, Гэбриэл Юнион, Хорди Молья, Петер Стормаре, Тереза Рэндл, Джо Пантолиано, Майкл Шеннон, Джон Седа, Юл Васкес
-Сюжет фильма
Детективы отдела по борьбе с незаконным оборотом наркотиков Майк Лоури и Маркус Бэрнетт получают задание расследовать схему доставки нового наркотика в Майами. Это расследование выводит их на искусный заговор, сплетенный местным наркобароном с целью поставить под контроль всю торговлю наркотиками в городе. По чистой случайности про эти амбициозные планы узнают и остальные игроки нелегального рынка, в результате чего вспыхивает настоящая война. Несмотря на это, Майку и Маркусу удается успешно справляться с натиском наркомафии и сажать дилеров за решетку. Но ситуация начинает выходить из-под контроля, когда Майк не на шутку увлекается сестрой Маркуса, Сидни. Торжество закона висит на волоске - ведь вместо выполнения спецзаданий детективы начинают выяснять отношения между собой...-Файл
Кодек: x264
Формат: MKV
Качество: BDRip 1080p (Источник: HDClub / 4K Remastered 1080p BDRemux)
Видео: MPEG-4 AVC 1920x804 pix, 23.976 fps, 14058 kbps, 0.380 Bits/Pixel
Аудио I: Dolby Digital 5.1 ch, 48 kHz, 448 kbps (Rus)
Аудио II: Dolby Digital 5.1 ch, 48 kHz, 640 kbps (Eng)
Субтитры: SRT Русские, Английские (полные, SDH)
Меню: Сохранены оригинальные чаптеры Blu-ray

MI & x264

x264 [info]: frame I:1764 Avg QP:18.26 size:242799
x264 [info]: frame P:52919 Avg QP:21.07 size:116032
x264 [info]: frame B:156411 Avg QP:23.45 size: 56886
x264 [info]: consecutive B-frames: 4.2% 4.4% 8.3% 31.9% 17.3% 22.8% 5.1% 5.2% 0.7%-General
Unique ID : 177039164699560177542610842579543282584 (0x853080BB976A8A998D02CD06F1B45398)
Format : Matroska
Format version : Version 2
File size : 15.5 GiB
Duration : 2h 26mn
Overall bit rate : 15.1 Mbps
Movie name : Плохие парни 2 (2003) BDRip (1080p)
Encoded date : UTC 2015-12-25 15:37:53
Writing application : mkvmerge v5.8.0 ('No Sleep / Pillow') built on Sep 2 2012 15:37:04
Writing library : libebml v1.2.3 + libmatroska v1.3.0
Video
ID : 1
Format : AVC
Format/Info : Advanced Video Codec
Format profile : High@L4.1
Format settings, CABAC : Yes
Format settings, ReFrames : 5 frames
Codec ID : V_MPEG4/ISO/AVC
Duration : 2h 26mn
Bit rate : 14.1 Mbps
Width : 1 920 pixels
Height : 804 pixels
Display aspect ratio : 2.40:1
Frame rate mode : Constant
Frame rate : 23.976 fps
Color space : YUV
Chroma subsampling : 4:2:0
Bit depth : 8 bits
Scan type : Progressive
Bits/(Pixel*Frame) : 0.380
Stream size : 14.1 GiB (91%)
Title : Release by Alex260680
Writing library : x264 core 148 r2597 e86f3a1
Encoding settings : cabac=1 / ref=5 / deblock=1:-3:-3 / analyse=0x3:0x133 / me=umh / subme=11 / psy=1 / psy_rd=1.05:0.00 / mixed_ref=1 / me_range=32 / chroma_me=1 / trellis=2 / 8x8dct=1 / cqm=0 / deadzone=21,11 / fast_pskip=0 / chroma_qp_offset=-2 / threads=6 / lookahead_threads=1 / sliced_threads=0 / nr=0 / decimate=0 / interlaced=0 / bluray_compat=0 / constrained_intra=0 / bframes=8 / b_pyramid=2 / b_adapt=2 / b_bias=0 / direct=3 / weightb=1 / open_gop=0 / weightp=2 / keyint=240 / keyint_min=23 / scenecut=40 / intra_refresh=0 / rc=full2pass / mbtree=0 / bitrate=14058 / ratetol=1.0 / qcomp=0.60 / qpmin=0 / qpmax=69 / qpstep=4 / cplxblur=20.0 / qblur=0.5 / ip_ratio=1.40 / pb_ratio=1.30 / aq=1:0.70
Language : English
Default : Yes
Forced : No
Audio #1
ID : 2
Format : AC-3
Format/Info : Audio Coding 3
Mode extension : CM (complete main)
Format settings, Endianness : Big
Codec ID : A_AC3
Duration : 2h 26mn
Bit rate mode : Constant
Bit rate : 448 Kbps
Channel(s) : 6 channels
Channel positions : Front: L C R, Side: L R, LFE
Sampling rate : 48.0 KHz
Bit depth : 16 bits
Compression mode : Lossy
Stream size : 470 MiB (3%)
Title : DUB
Language : Russian
Default : Yes
Forced : No
Audio #2
ID : 3
Format : AC-3
Format/Info : Audio Coding 3
Mode extension : CM (complete main)
Format settings, Endianness : Big
Codec ID : A_AC3
Duration : 2h 26mn
Bit rate mode : Constant
Bit rate : 640 Kbps
Channel(s) : 6 channels
Channel positions : Front: L C R, Side: L R, LFE
Sampling rate : 48.0 KHz
Bit depth : 16 bits
Compression mode : Lossy
Stream size : 672 MiB (4%)
Title : Original
Language : English
Default : No
Forced : No
Text #1
ID : 4
Format : UTF-8
Codec ID : S_TEXT/UTF8
Codec ID/Info : UTF-8 Plain Text
Title : Full
Language : Russian
Default : No
Forced : No
Text #2
ID : 5
Format : UTF-8
Codec ID : S_TEXT/UTF8
Codec ID/Info : UTF-8 Plain Text
Title : Full
Language : English
Default : No
Forced : No
Text #3
ID : 6
Format : UTF-8
Codec ID : S_TEXT/UTF8
Codec ID/Info : UTF-8 Plain Text
Title : SDH
Language : English
Default : No
Forced : No
Menu
00:00:00.000 : en:Chapter 01
00:11:04.497 : en:Chapter 02
00:21:54.396 : en:Chapter 03
00:39:54.767 : en:Chapter 04
00:45:27.683 : en:Chapter 05
00:53:27.788 : en:Chapter 06
00:59:01.246 : en:Chapter 07
01:06:26.065 : en:Chapter 08
01:11:28.618 : en:Chapter 09
01:17:53.168 : en:Chapter 10
01:30:27.130 : en:Chapter 11
01:37:38.227 : en:Chapter 12
01:45:53.764 : en:Chapter 13
01:56:46.625 : en:Chapter 14
02:05:07.583 : en:Chapter 15
02:16:06.700 : en:Chapter 16

Награды

Премия канала «MTV», 2004 год
Номинации:
- Лучшая экшн-сцена
- Лучшая экранная команда (Уилл Смит, Мартин Лоуренс)
[Профиль] [ЛС]
Показать сообщения:    

Текущее время: Сегодня 10:09

Часовой пояс: GMT



Вы не можете начинать темы
Вы не можете отвечать на сообщения
Вы не можете редактировать свои сообщения
Вы не можете удалять свои сообщения
Вы не можете голосовать в опросах
Вы не можете прикреплять файлы к сообщениям
Вы не можете скачивать файлы