Плохие парни всегда умирают / Huai dan bi xu si (2015) WEBRip 1080p | L2

 
Автор Сообщение

достали все ®

Пол:

Стаж: 1 год 8 месяцев

Сообщений: 6600



Награды: 12 (Подробнее)

Mega Seeder 5 (Количество: 1) Mega Seeder 3 (Количество: 1) Mega Seeder 4 (Количество: 1)
Торрент-статистика

Создавать темы 24-Май-2016 09:32

[Цитировать]

Плохие парни всегда умирают / Bad Guys Always Die / Huai dan bi xu si
Страна: Китай
Производство: Heyi Pictures Co., Huayi Film Entertainment
Год выпуска: 2015
Жанр: боевик, комедия
Продолжительность: 01:43:47
Режиссер: Хао Сун
В ролях: Бо Лин Чен, Венбо Динг, Чженью Цяо, Щин Хён-джун, Сон Э-джин
Описание: Молодой учитель китайского Цянцзы живёт в Пусане, залечивая душевные раны работой в школе. Однажды Цянцзы, его младший брат Па-па и двое его школьных друзей договариваются провести отпуск на острове Чеджу. Знаете, хорошая такая мужская компания, красивые виды из окна арендованной машины, а в перспективе ночные клубы со спиртным и горячими девушками! Всё началось, как договаривались: шоссе лентой за горизонт, уточнение планов в машине, школьные воспоминания, пересыпанные солёными мужскими шуточками...

Перевод №1: Любительский (двухголосый) | DeadSno & den904 (перевод: Skyworker)
Перевод №2: Любительский (двухголосый) | Ворон & Элейн (перевод: FSG Альянс)
Субтитры: русские (forced + full), китайские + английские (вшитые неотключаемые)-Качество: WEBRip 1080p
Формат: МКV
Видео кодек: AVC
Аудио кодек: АС3
Видео: 1920x800 (2.40:1), 25.000 fps, MPEG-4 AVC ~2 081 kbps
Аудио №1: 48.0 kHz, AC3 Dolby Digital, 2/0 (L,R) ch, ~192 kbps | Skyworker
Аудио №2: 48.0 kHz, AC3 Dolby Digital, 2/0 (L,R) ch, ~192 kbps | Альянс
Аудио №3: 48.0 kHz, AC3 Dolby Digital, 2/0 (L,R) ch, ~192 kbps | Chinese
Формат субтитров: Advanced Sub Station Alpha
Дата премьеры (мир): 2 октября 2015

Media Info

General
Unique ID : 198048080268802583248977958955968737515 (0x94FEAC3E0CD3508DBEFAD5CE98ADB0EB)
Format : Matroska
Format version : Version 4 / Version 2
Overall bit rate : 2 711 Kbps
Encoded date : UTC 2016-05-23 19:23:38
Writing application : mkvmerge v8.5.2 ('Crosses') 64bit
Writing library : libebml v1.3.3 + libmatroska v1.4.4
DURATION : 00:01:53.690000000
NUMBER_OF_FRAMES : 38
NUMBER_OF_BYTES : 3897
_STATISTICS_WRITING_APP : mkvmerge v8.5.2 ('Crosses') 64bit
_STATISTICS_WRITING_DATE_UTC : 2016-05-23 19:23:38
_STATISTICS_TAGS : BPS DURATION NUMBER_OF_FRAMES NUMBER_OF_BYTES
Video
ID : 1
Format : AVC
Format/Info : Advanced Video Codec
Format profile : High@L4
Format settings, CABAC : Yes
Format settings, ReFrames : 3 frames
Codec ID : V_MPEG4/ISO/AVC
Bit rate : 2 081 Kbps
Width : 1 920 pixels
Height : 800 pixels
Display aspect ratio : 2.40:1
Frame rate mode : Constant
Frame rate : 25.000 fps
Color space : YUV
Chroma subsampling : 4:2:0
Bit depth : 8 bits
Scan type : Progressive
Bits/(Pixel*Frame) : 0.054
Stream size : 29.2 MiB (77%)
Default : Yes
Forced : No
Color range : Limited
Color primaries : BT.709
Transfer characteristics : BT.709
Matrix coefficients : BT.709
Audio #1
ID : 2
Format : AC-3
Format/Info : Audio Coding 3
Mode extension : CM (complete main)
Format settings, Endianness : Big
Codec ID : A_AC3
Bit rate mode : Constant
Bit rate : 192 Kbps
Channel(s) : 2 channels
Channel positions : Front: L R
Sampling rate : 48.0 KHz
Compression mode : Lossy
Stream size : 2.69 MiB (7%)
Default : Yes
Forced : No
Audio #2
ID : 3
Format : AC-3
Format/Info : Audio Coding 3
Mode extension : CM (complete main)
Format settings, Endianness : Big
Codec ID : A_AC3
Bit rate mode : Constant
Bit rate : 192 Kbps
Channel(s) : 2 channels
Channel positions : Front: L R
Sampling rate : 48.0 KHz
Compression mode : Lossy
Stream size : 2.69 MiB (7%)
Title : Ворон и Элейн
Language : Russian
Default : No
Forced : No
Audio #3
ID : 4
Format : AC-3
Format/Info : Audio Coding 3
Mode extension : CM (complete main)
Format settings, Endianness : Big
Codec ID : A_AC3
Bit rate mode : Constant
Bit rate : 192 Kbps
Channel(s) : 2 channels
Channel positions : Front: L R
Sampling rate : 48.0 KHz
Compression mode : Lossy
Stream size : 2.69 MiB (7%)
Title : Original
Language : Chinese
Default : No
Forced : No
Text #1
ID : 5
Format : ASS
Codec ID : S_TEXT/ASS
Codec ID/Info : Advanced Sub Station Alpha
Compression mode : Lossless
Title : форсированный(надписи)
Language : Russian
Default : Yes
Forced : Yes
Text #2
ID : 6
Format : ASS
Codec ID : S_TEXT/ASS
Codec ID/Info : Advanced Sub Station Alpha
Compression mode : Lossless
Title : Перевод - [фансаб-группы "Альянс"]
Language : Russian
Default : No
Forced : No

Скриншоты

[Профиль] [ЛС]
Показать сообщения:    

Текущее время: Сегодня 03:20

Часовой пояс: GMT



Вы не можете начинать темы
Вы не можете отвечать на сообщения
Вы не можете редактировать свои сообщения
Вы не можете удалять свои сообщения
Вы не можете голосовать в опросах
Вы не можете прикреплять файлы к сообщениям
Вы не можете скачивать файлы