Плохие мальчики / Bad Boys (1983) BDRemux 1080p | P, P2

 
Автор Сообщение

sergej644 ®

Пол:

Стаж: 4 года 11 месяцев

Сообщений: 6044

Откуда: Soviet Union



Награды: Нет

Торрент-статистика

Создавать темы 09-Июл-2015 09:46

[Цитировать]

Информация о фильме
Название: Плохие мальчики
Оригинальное название: Bad Boys
Год выпуска: 1983
Жанр: Триллер, драма, криминал
Режиссер: Рик Розенталь
В ролях: Шон Пенн, Рени Сантони, Джим Муди, Эрик Гарри, Эсай Моралес, Элли Шиди, Клэнси Браун, Роберт Ли Раш, Джон Зенда, Алан Рак, Тони Мокус мл., Дин Фортунато, Лоуренс Мах, Хорхе Ноа, Рэй Кабальеро, Марта Де Ла Круз
О фильме: Предводители двух враждебных молодежных банд посажены в исправительную тюрьму для несовершеннолетних преступников. Взаимная ненависть и нарастающее давление заключенных, жаждущих крови, толкает их на смертельную схватку…

Выпущено: США, EMI Films Ltd., Solofilm
Продолжительность: 02:03:49
Перевод: Профессиональный многоголосый, профессиональный двухголосый
Файл
Формат: MKV
Качество: BDRemux 1080p
Видео: MPEG-4 AVC, ~18900 Кбит/с, 1920x1080, 23.976 кадр/с
Аудио 1: Russian: 48 kHz, АС3, 2 ch, 192 kbps [многоголосый, CP Digital]
Аудио 2: Russian: 48 kHz, АС3, 2 ch, 192 kbps [двухголосый, ВГТРК "Россия"]
Субтитры: Русские, английские

Media Info

General
UniqueID : 241392911805634715915115697592616830751 (0xB59A956EBC1FE8FCAB39F41D0A97471F)
Complete name : J:Bad.Boys.1983.1080p.Bluray.AVC.Remux.mkv
Format : Matroska
File size : 18.4 GiB
Duration : 2h 3mn
Overall bit rate : 21.3 Mbps
Movie name : Bad.Boys.1983.1080p.Bluray.AVC.Remux
Encoded date : UTC 2011-03-17 16:28:40
Writing application : mkvmerge v3.2.0 ('Beginnings') built on Feb 12 2010 16:46:17
Writing library : libebml v0.7.9 + libmatroska v0.8.1
Video
ID : 1
Format : AVC
Format/Info : Advanced Video Codec
Format profile : High@L4.1
Format settings, CABAC : Yes
Format settings, ReFrames : 4 frames
Codec ID : V_MPEG4/ISO/AVC
Duration : 2h 3mn
Bit rate mode : Variable
Maximum bit rate : 35.0 Mbps
Width : 1 920 pixels
Height : 1 080 pixels
Display aspect ratio : 16:9
Frame rate : 23.976 fps
Standard : NTSC
Color space : YUV
Chroma subsampling : 4:2:0
Bit depth : 8 bits
Scan type : Progressive
Title : uralmix
Color primaries : BT.709-5, BT.1361, IEC 61966-2-4, SMPTE RP177
Transfer characteristics : BT.709-5, BT.1361
Matrix coefficients : BT.709-5, BT.1361, IEC 61966-2-4 709, SMPTE RP177
Audio #1
ID : 2
Format : AC-3
Format/Info : Audio Coding 3
Mode extension : CM (complete main)
Codec ID : A_AC3
Duration : 2h 3mn
Bit rate mode : Constant
Bit rate : 192 Kbps
Channel(s) : 2 channels
Channel positions : Front: L R
Sampling rate : 48.0 KHz
Bit depth : 16 bits
Compression mode : Lossy
Stream size : 170 MiB (1%)
Title : CP Digital
Language : Russian
Audio #2
ID : 3
Format : AC-3
Format/Info : Audio Coding 3
Mode extension : CM (complete main)
Codec ID : A_AC3
Duration : 2h 3mn
Bit rate mode : Constant
Bit rate : 192 Kbps
Channel(s) : 2 channels
Channel positions : Front: L R
Sampling rate : 48.0 KHz
Bit depth : 16 bits
Compression mode : Lossy
Stream size : 170 MiB (1%)
Title : Россия
Language : Russian
Audio #3
ID : 4
Format : DTS
Format/Info : Digital Theater Systems
Format profile : MA
Codec ID : A_DTS
Duration : 2h 3mn
Bit rate mode : Variable
Channel(s) : 2 channels
Channel positions : Front: L R
Sampling rate : 48.0 KHz
Bit depth : 24 bits
Compression mode : Lossy
Language : English
Text #1
ID : 5
Format : UTF-8
Codec ID : S_TEXT/UTF8
Codec ID/Info : UTF-8 Plain Text
Language : Russian
Text #2
ID : 6
Format : UTF-8
Codec ID : S_TEXT/UTF8
Codec ID/Info : UTF-8 Plain Text
Language : English

Скриншоты

Релиз от:
[Профиль] [ЛС]
Показать сообщения:    

Текущее время: Сегодня 12:14

Часовой пояс: GMT



Вы не можете начинать темы
Вы не можете отвечать на сообщения
Вы не можете редактировать свои сообщения
Вы не можете удалять свои сообщения
Вы не можете голосовать в опросах
Вы не можете прикреплять файлы к сообщениям
Вы не можете скачивать файлы