Плохая партия / The Bad Batch (2016) BDRemux 1080p | L1

 
Автор Сообщение

Razboynik ®

Пол:

Стаж: 1 год 1 месяц

Сообщений: 72



Награды: Нет

Торрент-статистика

Создавать темы 23-Сен-2017 07:50

[Цитировать]

Информация о фильме
Название: Плохая партия
Оригинальное название: The Bad Batch
Год выхода: 2016
Жанр: Фантастика, мелодрама
Режиссер: Ана Лили Амирпур
В ролях: Киану Ривз, Джейсон Момоа, Джим Керри, Сьюки Уотерхаус, Джованни Рибизи, Диего Луна, Алина Алилуйкина, Эмили О’Брайэн, Йолонда Росс, Саншайн Ли
О фильме:
Местом действия постапокалиптической картины станет техасский пустырь, где обосновалось сообщество каннибалов. Один из них, известный под прозвищем Человек из Майами, влюбляется в свою потенциальную пищу.

Страна: США
Студия: Human Stew Factory, Annapurna Pictures, Reel Chefs Catering, Vice Films
Продолжительность: 01:58:39
Перевод: Любительский одноголосый | BadBajo
Файл
Качество: BDRemux 1080p
Видео: MPEG-4 AVC, 1920x1080, 29.8 Mbit/s, 23.976 fps
Звук:
Аудио #01: 48 kHz, DTS-HD MA, 5.1, 3740 Kbps | BadBajo | RUS |
Аудио #02: 48 kHz, DTS-HD MA, 5.1, 3683 Kbps | Оригинал | ENG |
Субтитры: Русские, английские

Скриншоты

MI

General
Unique ID : 207075516708275237395532296586142137557 (0x9BC94B38F41DD3EEB716820BB893BCD5)
Complete name : F:VideoThe.Bad.Batch.2016.BDREMUX.1080p.ExKinoRay.mkv
Format : Matroska
Format version : Version 4 / Version 2
File size : 30.9 GiB
Duration : 1 h 58 min
Overall bit rate mode : Variable
Overall bit rate : 37.2 Mb/s
Encoded date : UTC 2017-09-22 18:36:07
Writing application : mkvmerge v15.0.0 ('Duel with the Devil') 64-bit
Writing library : libebml v1.3.5 + libmatroska v1.4.5
Video
ID : 1
Format : AVC
Format/Info : Advanced Video Codec
Format profile : High@L4.1
Format settings, CABAC : Yes
Format settings, RefFrames : 4 frames
Codec ID : V_MPEG4/ISO/AVC
Duration : 1 h 58 min
Bit rate mode : Variable
Bit rate : 29.8 Mb/s
Maximum bit rate : 35.0 Mb/s
Width : 1 920 pixels
Height : 1 080 pixels
Display aspect ratio : 16:9
Frame rate mode : Constant
Frame rate : 23.976 (24000/1001) FPS
Color space : YUV
Chroma subsampling : 4:2:0
Bit depth : 8 bits
Scan type : Progressive
Bits/(Pixel*Frame) : 0.600
Stream size : 24.7 GiB (80%)
Language : English
Default : Yes
Forced : No
Audio #1
ID : 2
Format : DTS
Format/Info : Digital Theater Systems
Format profile : MA / Core
Mode : 16
Format settings, Endianness : Big
Codec ID : A_DTS
Duration : 1 h 58 min
Bit rate mode : Variable / Constant
Bit rate : 3 740 kb/s / 1 509 kb/s
Channel(s) : 6 channels
Channel positions : Front: L C R, Side: L R, LFE
Sampling rate : 48.0 kHz
Frame rate : 93.750 FPS (512 SPF)
Bit depth : 24 bits
Compression mode : Lossless / Lossy
Stream size : 3.10 GiB (10%)
Title : AVO [BadBajo]
Language : Russian
Default : Yes
Forced : No
Audio #2
ID : 3
Format : DTS
Format/Info : Digital Theater Systems
Format profile : MA / Core
Mode : 16
Format settings, Endianness : Big
Codec ID : A_DTS
Duration : 1 h 58 min
Bit rate mode : Variable / Constant
Bit rate : 3 683 kb/s / 1 509 kb/s
Channel(s) : 6 channels
Channel positions : Front: L C R, Side: L R, LFE
Sampling rate : 48.0 kHz
Frame rate : 93.750 FPS (512 SPF)
Bit depth : 24 bits
Compression mode : Lossless / Lossy
Stream size : 3.05 GiB (10%)
Title : Original
Language : English
Default : No
Forced : No
Text #1
ID : 4
Format : UTF-8
Codec ID : S_TEXT/UTF8
Codec ID/Info : UTF-8 Plain Text
Duration : 1 h 51 min
Bit rate : 23 b/s
Count of elements : 438
Stream size : 18.9 KiB (0%)
Title : Full
Language : Russian
Default : No
Forced : No
Text #2
ID : 5
Format : UTF-8
Codec ID : S_TEXT/UTF8
Codec ID/Info : UTF-8 Plain Text
Duration : 1 h 58 min
Bit rate : 61 b/s
Count of elements : 1059
Stream size : 53.6 KiB (0%)
Title : SDH Colored
Language : English
Default : No
Forced : No
Menu
00:00:00.000 : en:Chapter 01
00:07:15.226 : en:Chapter 02
00:18:09.379 : en:Chapter 03
00:29:15.670 : en:Chapter 04
00:38:49.618 : en:Chapter 05
00:46:13.395 : en:Chapter 06
00:59:59.387 : en:Chapter 07
01:11:03.676 : en:Chapter 08
01:21:51.907 : en:Chapter 09
01:31:33.946 : en:Chapter 10
01:40:35.779 : en:Chapter 11
01:53:19.542 : en:Chapter 12
[Профиль] [ЛС]
Показать сообщения:    

Текущее время: Сегодня 13:07

Часовой пояс: GMT



Вы не можете начинать темы
Вы не можете отвечать на сообщения
Вы не можете редактировать свои сообщения
Вы не можете удалять свои сообщения
Вы не можете голосовать в опросах
Вы не можете прикреплять файлы к сообщениям
Вы не можете скачивать файлы