Плохая партия / The Bad Batch (2016) WEB-DL 1080p | L1

 
Автор Сообщение

BOSS ®

Пол:

Стаж: 3 года

Сообщений: 7569

Откуда: ODESSA



Награды: 22 (Подробнее)

Top Keeper 1 (Количество: 1) Mega Seeder 2 (Количество: 1) Mega Seeder 3 (Количество: 1)
Торрент-статистика

Создавать темы 27-Июн-2017 12:41

[Цитировать]

Информация о фильме
Название: Плохая партия
Оригинальное название: The Bad Batch
Год выхода: 2016
Жанр: фантастика, мелодрама
Режиссер: Ана Лили Амирпур
В ролях: Киану Ривз, Джейсон Момоа, Джим Керри, Сьюки Уотерхаус, Джованни Рибизи, Диего Луна, Алина Алилуйкина, Эмили О’Брайэн, Йолонда Росс, Саншайн Ли
О фильме:
Футуристическая антиутопия разворачивается на территории Америки, где все неугодные обществу люди изгоняются в отгороженную от цивилизации техасскую пустыню. Девушку Арлин по прибытии на дикую территорию ловит группа каннибалов, и перед новенькой маячат совсем безрадостные перспективы — бороться за свою жизнь любой ценой или быть медленно съеденной.

Страна: США
Студия: Human Stew Factory, Reel Chefs Catering, Vice Films
Продолжительность: 01:58:49
Перевод: Любительский одноголосный, закадровый [BadBajo]
Файл
Кодек: H.264
Качество: WEB-DL 1080p
Видео: AVC, 1920x792 (2.40:1), 23.976 fps ~ 4430 Kbps
Звук:
AC3, 48 KHz 6 ch ~ 384 Kb/s (русский)
AC3, 48 KHz 6 ch ~ 384 Kb/s (английский)
Субтитры: английские

MI:

Общее
Уникальный идентификатор : 212881897625361765107610328016581417680 (0xA0278FE7745DAC259F78AFB8DCB9DAD0)
Полное имя : Q:TorFThe.Bad.Batch.2016.WEB-DL.1080p.mkv
Формат : Matroska
Версия формата : Version 2
Размер файла : 4,40 Гбайт
Продолжительность : 1 ч. 58 м.
Общий поток : 5304 Кбит/сек
Дата кодирования : UTC 2017-06-27 06:36:18
Программа кодирования : mkvmerge v5.4.0 ('Piper') built on Mar 10 2012 13:34:39
Библиотека кодирования : libebml v1.2.3 + libmatroska v1.3.0
DURATION : 01:58:49.408000000
NUMBER_OF_FRAMES : 222794
NUMBER_OF_BYTES : 342211584
_STATISTICS_WRITING_APP : mkvmerge v12.0.0 ('Trust / Lust') 64bit
_STATISTICS_WRITING_DATE_UTC : 2017-06-24 13:50:54
_STATISTICS_TAGS : BPS DURATION NUMBER_OF_FRAMES NUMBER_OF_BYTES
Attachment : Yes / Yes / Yes / Yes / Yes
Видео
Идентификатор : 1
Формат : AVC
Формат/Информация : Advanced Video Codec
Профиль формата : High@L4.0
Параметр CABAC формата : Да
Параметр ReFrames формата : 5 кадров
Идентификатор кодека : V_MPEG4/ISO/AVC
Продолжительность : 1 ч. 58 м.
Битрейт : 4430 Кбит/сек
Ширина : 1920 пикселей
Высота : 792 пикселя
Соотношение сторон : 2,40:1
Частота кадров : 23,976 кадра/сек
Цветовое пространство : YUV
Субдискретизация насыщенности : 4:2:0
Битовая глубина : 8 бит
Тип развёртки : Прогрессивная
Бит/(Пиксели*Кадры) : 0.122
Размер потока : 3,68 Гбайт (84%)
Заголовок : The.Bad.Batch.2016.1080p
Язык : English
Default : Да
Forced : Нет
Основные цвета : BT.709-5, BT.1361, IEC 61966-2-4, SMPTE RP177
Характеристики трансфера : BT.709-5, BT.1361
Коэффициенты матрицы : BT.709-5, BT.1361, IEC 61966-2-4 709, SMPTE RP177
Аудио #1
Идентификатор : 2
Формат : AC-3
Формат/Информация : Audio Coding 3
Расширение режима : CM (complete main)
Идентификатор кодека : A_AC3
Продолжительность : 1 ч. 58 м.
Вид битрейта : Постоянный
Битрейт : 384 Кбит/сек
Каналы : 6 каналов
Расположение каналов : Front: L C R, Side: L R, LFE
Частота : 48,0 КГц
Битовая глубина : 16 бит
Метод сжатия : С потерями
Задержка видео : -42 мс.
Размер потока : 326 Мбайт (7%)
Заголовок : BadBajo
Язык : Russian
Default : Да
Forced : Нет
Аудио #2
Идентификатор : 3
Формат : AC-3
Формат/Информация : Audio Coding 3
Расширение режима : CM (complete main)
Идентификатор кодека : A_AC3
Продолжительность : 1 ч. 58 м.
Вид битрейта : Постоянный
Битрейт : 384 Кбит/сек
Каналы : 6 каналов
Расположение каналов : Front: L C R, Side: L R, LFE
Частота : 48,0 КГц
Битовая глубина : 16 бит
Метод сжатия : С потерями
Задержка видео : -42 мс.
Размер потока : 326 Мбайт (7%)
Язык : English
Default : Нет
Forced : Нет
Текст
Идентификатор : 4
Формат : UTF-8
Идентификатор кодека : S_TEXT/UTF8
Идентификатор кодека/Информация : UTF-8 Plain Text
Язык : English
Default : Да
Forced : Нет
Меню
00:00:00.000 : en:Opening Sequence
00:07:23.000 : en:Jealous Of Us
00:12:34.000 : en:Captivity
00:17:44.000 : en:What's The Thing?
00:23:51.000 : en:I Can't Do This
00:29:00.000 : en:We Ain't The Same
00:35:58.000 : en:My Name's Arlen
00:40:59.000 : en:You See Her?
00:46:25.000 : en:Find The Dream
00:54:08.000 : en:It's So Big
01:00:11.000 : en:Long Way From Comfort
01:05:17.000 : en:I'm Being Friendly
01:11:15.000 : en:What's Your Number?
01:17:41.000 : en:Welcome To Comfort
01:22:52.000 : en:A Finder
01:28:36.000 : en:I'm Lost
01:33:44.000 : en:The Economy Of Comfort
01:40:47.000 : en:Take Care
01:46:08.000 : en:Look Around, It's Nothing
01:53:35.000 : en:End Credits

Скриншоты

[Профиль] [ЛС]
Показать сообщения:    

Текущее время: Сегодня 05:49

Часовой пояс: GMT



Вы не можете начинать темы
Вы не можете отвечать на сообщения
Вы не можете редактировать свои сообщения
Вы не можете удалять свои сообщения
Вы не можете голосовать в опросах
Вы не можете прикреплять файлы к сообщениям
Вы не можете скачивать файлы