Плотина против Тихого океана / Un barrage contre le Pacifique / The Sea Wall (Рити Панх / Rithy Panh) [2008, Франция, Камбоджа, Бельгия, драма, DVDRip] MVO

 
Автор Сообщение

painkiller ®

Стаж: 2 года 3 месяца

Сообщений: 582



Награды: Нет

Торрент-статистика

Создавать темы 15-Авг-2014 10:16

[Цитировать]

Плотина против Тихого океана / Un barrage contre le Pacifique / The Sea Wall
Страна: Франция, Камбоджа, Бельгия
Жанр: драма
Год выпуска: 2008
Продолжительность: 01:51:17
Перевод: Профессиональный (многоголосый закадровый)
Cубтитры: нет
Режиссер: Рити Панх / Rithy Panh
В ролях: Изабель Юппер, Гаспар Юллель, Астрид Берже-Фрисбей, Рандал Дук, Вантон Дуонг, Стефан Ридо, Люси Харрисон, Деун Тенн Нан, Чорн Солида
Описание: Вторая экранизация одноимённого романа Маргерит Дюрас (первая экранизация - фильм Рене Клемана 1958 года). Действие фильма происходит в колонии Франции - Индокитае. На общем фоне антиколониального настроения картины режиссёр сосредотачивается на отношениях матери-владелицы рисовой плантации (Юппер) с "неожиданно" повзрослевшими детьми (Юллель и Берже-Фрисби), которые отстаивают своё право на независимость. Героиня Юппер, несмотря на то, что всё вокруг неё рушится, продолжает по крохам настойчиво восстанавливать, снова и снова проигрывать свою старую, привычную жизнь. В то время как её дети ищут для себя новые пути и возможности, но, усвоившие привычки своей матери, также застревают в постоянном проигрывании одних и тех же жизненных ситуациях.
Сэмпл: http://multi-up.com/967223
Качество видео: DVDRip
Формат видео: AVI
Видео: XviD, 1665 Кбит/с, 720х384, 25,000 кадров/сек
Аудио: АС3, 2 ch, 192 Кбит/с, 48,0 КГц

MediaInfo

I:\Плотина против Тихого океана\Plotina.protiv.Tihogo.okeana.2008.XviD.DVDRip.avi
General
Complete name : I:\Плотина против Тихого океана\Plotina.protiv.Tihogo.okeana.2008.XviD.DVDRip.avi
Format : AVI
Format/Info : Audio Video Interleave
File size : 1.45 GiB
Duration : 1h 51mn
Overall bit rate : 1 867 Kbps
Writing application : VirtualDubModRus 1.5.10.2 (build 2542/release)
Writing library : VirtualDubMod build 2542/release
Video #0
ID : 0
Format : MPEG-4 Visual
Format profile : Advanced Simple@L5
Format settings, BVOP : 2
Format settings, QPel : No
Format settings, GMC : No warppoints
Format settings, Matrix : Default (MPEG)
Codec ID : XVID
Codec ID/Hint : XviD
Duration : 1h 51mn
Bit rate : 1 665 Kbps
Width : 720 pixels
Height : 384 pixels
Display aspect ratio : 1.85:1
Frame rate : 25.000 fps
Color space : YUV
Chroma subsampling : 4:2:0
Bit depth : 8 bits
Scan type : Progressive
Compression mode : Lossy
Bits/(Pixel*Frame) : 0.241
Stream size : 1.29 GiB (89%)
Writing library : XviD 1.2.1 (UTC 2008-12-04)
Audio #1
ID : 1
Format : AC-3
Format/Info : Audio Coding 3
Mode extension : CM (complete main)
Format settings, Endianness : Big
Codec ID : 2000
Duration : 1h 51mn
Bit rate mode : Constant
Bit rate : 192 Kbps
Channel count : 2 channels
Channel positions : Front: L R
Sampling rate : 48.0 KHz
Bit depth : 16 bits
Compression mode : Lossy
Stream size : 153 MiB (10%)
Alignment : Split accross interleaves
Interleave, duration : 40 ms (1.00 video frame)
Interleave, preload duration : 500 ms

Скриншот c названием фильма

Скриншоты

[Профиль] [ЛС]

Создавать темы 06-Авг-2015 23:11 (спустя 11 месяцев 22 дня)

Топик был перенесен из форума Фильмы до 2014 года в форум Фильмы до 2012 года
sergej644
 

Создавать темы 12-Июн-2016 08:51 (спустя 1 год 9 месяцев)

Топик был перенесен из форума Фильмы 2011 года в форум Фильмы 2006-2008 года
Russian Mafia
 
Показать сообщения:    

Текущее время: Сегодня 22:41

Часовой пояс: GMT



Вы не можете начинать темы
Вы не можете отвечать на сообщения
Вы не можете редактировать свои сообщения
Вы не можете удалять свои сообщения
Вы не можете голосовать в опросах
Вы не можете прикреплять файлы к сообщениям
Вы не можете скачивать файлы