Плетеный человек / The Wicker Man (Нил ЛаБут / Neil LaBute) [2006, США, ужасы, триллер, детектив, BDRip] Dub + Original Eng + subs (Rus, Rus Forced, Eng, Eng SDH, Ukr Forced)

 
Автор Сообщение

TorrentFilm ®

Пол:

Стаж: 2 года

Сообщений: 7741



Награды: Нет

Торрент-статистика

Создавать темы 12-Май-2015 00:04

[Цитировать]

Плетеный человек / The Wicker Man- Год выпуска: 2006
Страна: США
Жанр: ужасы, триллер, детектив
Продолжительность: 01:41:55
Перевод: Профессиональный (полное дублирование)
+ Оригинальная звуковая дорожка
Субтитры: Русские (полные, форсированные), Английские (полные, SDH), Украинские (форсированные) (внешние srt*)-Режиссер: Нил ЛаБут / Neil LaBute
В ролях: Николас Кейдж, Эллен Бёрстин, Кейт Бихан, Фрэнсис Конрой, Молли Паркер, Лили Собески, Дайан Делано, Майкл Уайзмен, Эрика-Шэй Гэйр, Криста Кэмпбелл
О фильме: Бывший полицейский Эдвард Маюлис получает письмо от своей давней подруги, в котором она просит найти ее пропавшую дочь. Расследуя исчезновение маленькой девочки, Эдвард попадает на странный остров с очень странными людьми и обнаруживает, что пропажа девочки связана с существующим на острове тайным обществом. Непонятные символы, пугающие обряды — во всем этом придется разобраться полицейскому, чтобы узнать страшную тайну…-Релиз:
Автор: sociolog_melvas
Качество: BDRip (источник: / BD-Remux / 1080p)
Формат: AVI
Видео: 720x304 (2.37:1), 23,976 fps, XviD build 65 ~2164 kbps avg, 0.41 bit/pixel
Аудио #1: 48 kHz, AC3 Dolby Digital, 3/2 (L,C,R,l,r) + LFE ch, ~448.00 kbps avg rus
Аудио #2: 48 kHz, AC3 Dolby Digital, 3/2 (L,C,R,l,r) + LFE ch, ~448.00 kbps avg eng
Размер: 2236.04 Mb (1/2 DVD-R)
Скачать: Семпл-

Кадры из фильма


-

Mi

Формат : AVI
Формат/Информация : Audio Video Interleave
Профиль формата : OpenDML
Размер файла : 2,18 Гбайт
Продолжительность : 1 ч. 41 м.
Общий поток : 3067 Кбит/сек
Название фильма : Плетеный человек / The Wicker Man (2006) BDRip
Режиссёр : sociolog_melvas
Жанр : ужасы, триллер, детектив
Программа кодирования : VirtualDubMod 1.5.10.2 (build 2540/release)
Примечание : 10.05.2015
Видео
Идентификатор : 0
Формат : MPEG-4 Visual
Профиль формата : Advanced Simple@L5
Параметр BVOP формата : 1
Параметр QPel формата : Нет
Параметр GMC формата : Без точки перехода
Параметр матрицы формата : Выборочная
Идентификатор кодека : XVID
Идентификатор кодека/Подсказка : XviD
Продолжительность : 1 ч. 41 м.
Битрейт : 2153 Кбит/сек
Ширина : 720 пикселей
Высота : 304 пикселя
Соотношение сторон : 2,35:1
Частота кадров : 23,976 кадра/сек
Цветовое пространство : YUV
Субдискретизация насыщенности : 4:2:0
Битовая глубина : 8 бит
Тип развёртки : Прогрессивная
Метод сжатия : С потерями
Бит/(Пиксели*Кадры) : 0.410
Размер потока : 1,53 Гбайт (70%)
Библиотека кодирования : XviD 65
Аудио #1
Идентификатор : 1
Формат : AC-3
Формат/Информация : Audio Coding 3
Расширение режима : CM (complete main)
Параметр Endianness формата : Big
Идентификатор кодека : 2000
Продолжительность : 1 ч. 41 м.
Вид битрейта : Постоянный
Битрейт : 448 Кбит/сек
Каналы : 6 каналов
Расположение каналов : Front: L C R, Side: L R, LFE
Частота : 48,0 КГц
Битовая глубина : 16 бит
Метод сжатия : С потерями
Размер потока : 327 Мбайт (15%)
Выравнивание : Разделение по промежуткам
Продолжительность промежутка : 42 мс. (1,00 видеокадр)
Время предзагрузки промежутка : 500 мс.
Аудио #2
Идентификатор : 2
Формат : AC-3
Формат/Информация : Audio Coding 3
Расширение режима : CM (complete main)
Параметр Endianness формата : Big
Идентификатор кодека : 2000
Продолжительность : 1 ч. 41 м.
Вид битрейта : Постоянный
Битрейт : 448 Кбит/сек
Каналы : 6 каналов
Расположение каналов : Front: L C R, Side: L R, LFE
Частота : 48,0 КГц
Битовая глубина : 16 бит
Метод сжатия : С потерями
Размер потока : 327 Мбайт (15%)
Выравнивание : Разделение по промежуткам
Продолжительность промежутка : 42 мс. (1,00 видеокадр)
Время предзагрузки промежутка : 500 мс.

-

• За долгожданный источник спасибо joker_skif и irrlicht.
• Все существующий дороги имеют неполный (в пределах 3-х минут) перевод. Для этого есть форсированные субтитры в папке раздачи.
[Профиль] [ЛС]

Создавать темы 06-Авг-2015 22:35 (спустя 2 месяца 25 дней)

Топик был перенесен из форума Фильмы до 2014 года в форум Фильмы до 2012 года
sergej644
 
Показать сообщения:    

Текущее время: Сегодня 16:23

Часовой пояс: GMT



Вы не можете начинать темы
Вы не можете отвечать на сообщения
Вы не можете редактировать свои сообщения
Вы не можете удалять свои сообщения
Вы не можете голосовать в опросах
Вы не можете прикреплять файлы к сообщениям
Вы не можете скачивать файлы