Пленницы / Prisoners (2013) BDRip 1080p

 
Автор Сообщение

sergej644 ®

Пол:

Стаж: 4 года 11 месяцев

Сообщений: 6041

Откуда: Soviet Union



Награды: Нет

Торрент-статистика

Создавать темы 04-Мар-2015 16:12

[Цитировать]

Информация о фильме
Название: Пленницы
Оригинальное название: Prisoners
Год выхода: 2013
Жанр: триллер, драма, криминал
Режиссер: Дени Вильнёв
В ролях: Хью Джекман, Джейк Джилленхол, Виола Дэвис, Мария Белло, Терренс Ховард, Мелисса Лео, Пол Дано, Дилан Миннетт, Зои Борд, Эрин Герасимович
О фильме:
Келлер Довер сталкивается с самым большим кошмаром каждого родителя: его шестилетняя дочь пропала вместе с подругой. Время бежит, девочки не возвращаются, и паника достигает своего предела. Единственная зацепка — обветшалый фургончик, который был припаркован на их улице, когда девочки играли во дворе. Детектив Локки, возглавляющий расследование, арестовывает его водителя, Алекса Джонса, но вскоре полиция вынуждена его отпустить из-за нехватки улик. Полиция медлит, а обезумевший от горя отец берет дело в свои руки. Но как далеко готов зайти Келлер в поисках девочек?

Выпущено: США
Продолжительность: 02:33:11
Перевод: Дублированный(студия "Пифагор") + Авторский одноголосый закадровый(Ю.Сербин) + Оригинал
Файл
Кодек: x264
Качество: BDRip 1080p
Видео: 1920x1080, 5974 Kbps, 23.976 fps
Аудио #1: AC-3, 6 ch, 384 kbps (Rus)
Аудио #2: AC-3, 6 ch, 448 kbps (Rus) Одноголосый закадровый, Ю.Сербин
Аудио #3: AC-3, 6 ch, 448 kbps (Eng)
Субтитры: русские, английские

Скриншоты

MI

x264 [info]: frame I:1553 Avg QP:13.27 size:199486
x264 [info]: frame P:57127 Avg QP:16.81 size: 69414
x264 [info]: frame B:161693 Avg QP:19.12 size: 16004-Общее
Уникальный идентификатор : 199779794845174297834757745732748363631 (0x964C305CE72579F2AC2B0586FFF0C76F)
Полное имя : Пленницы.2013.BDRip.1080p.Rus.Eng.mkv
Формат : Matroska
Версия формата : Version 2
Размер файла : 7,76 Гбайт
Продолжительность : 2 ч. 33 м.
Общий поток : 7255 Кбит/сек
Название фильма : Пленницы.2013
Дата кодирования : UTC 2015-03-03 19:04:53
Программа кодирования : mkvmerge v5.8.0 ('No Sleep / Pillow') built on Sep 2 2012 15:37:04
Библиотека кодирования : libebml v1.2.3 + libmatroska v1.3.0
Attachements : Cover.png
Видео
Идентификатор : 1
Формат : AVC
Формат/Информация : Advanced Video Codec
Профиль формата : High@L4.1
Параметр CABAC формата : Да
Параметр ReFrames формата : 4 кадра
Идентификатор кодека : V_MPEG4/ISO/AVC
Продолжительность : 2 ч. 33 м.
Битрейт : 5974 Кбит/сек
Ширина : 1920 пикселей
Высота : 1080 пикселей
Соотношение сторон : 16:9
Режим частоты кадров : Постоянный
Частота кадров : 23,976 кадра/сек
Цветовое пространство : YUV
Субдискретизация насыщенности : 4:2:0
Битовая глубина : 8 бит
Тип развёртки : Прогрессивная
Бит/(Пиксели*Кадры) : 0.120
Размер потока : 6,24 Гбайт (80%)
Заголовок : Rip by Boriy
Библиотека кодирования : x264 core 146 r2538 121396c
Настройки программы : cabac=1 / ref=4 / deblock=1:-3:-3 / analyse=0x3:0x113 / me=umh / subme=11 / psy=1 / psy_rd=1.00:0.00 / mixed_ref=1 / me_range=32 / chroma_me=1 / trellis=2 / 8x8dct=1 / cqm=0 / deadzone=21,11 / fast_pskip=0 / chroma_qp_offset=-2 / threads=12 / lookahead_threads=2 / sliced_threads=0 / nr=0 / decimate=0 / interlaced=0 / bluray_compat=0 / constrained_intra=0 / bframes=9 / b_pyramid=2 / b_adapt=2 / b_bias=0 / direct=3 / weightb=1 / open_gop=0 / weightp=2 / keyint=240 / keyint_min=23 / scenecut=40 / intra_refresh=0 / rc_lookahead=60 / rc=2pass / mbtree=1 / bitrate=5974 / ratetol=1.0 / qcomp=0.60 / qpmin=0 / qpmax=69 / qpstep=4 / cplxblur=20.0 / qblur=0.5 / ip_ratio=1.40 / aq=1:0.80
Язык : English
Default : Да
Forced : Нет
Аудио #1
Идентификатор : 2
Формат : AC-3
Формат/Информация : Audio Coding 3
Расширение режима : CM (complete main)
Параметр Endianness формата : Big
Идентификатор кодека : A_AC3
Продолжительность : 2 ч. 33 м.
Вид битрейта : Постоянный
Битрейт : 384 Кбит/сек
Каналы : 6 каналов
Расположение каналов : Front: L C R, Side: L R, LFE
Частота : 48,0 КГц
Битовая глубина : 16 бит
Метод сжатия : С потерями
Размер потока : 421 Мбайт (5%)
Заголовок : Дубляж
Язык : Russian
Default : Да
Forced : Нет
Аудио #2
Идентификатор : 3
Формат : AC-3
Формат/Информация : Audio Coding 3
Расширение режима : CM (complete main)
Параметр Endianness формата : Big
Идентификатор кодека : A_AC3
Продолжительность : 2 ч. 33 м.
Вид битрейта : Постоянный
Битрейт : 448 Кбит/сек
Каналы : 6 каналов
Расположение каналов : Front: L C R, Side: L R, LFE
Частота : 48,0 КГц
Битовая глубина : 16 бит
Метод сжатия : С потерями
Размер потока : 491 Мбайт (6%)
Заголовок : Одноголосый закадровый, Ю.Сербин
Язык : Russian
Default : Нет
Forced : Нет
Аудио #3
Идентификатор : 4
Формат : AC-3
Формат/Информация : Audio Coding 3
Расширение режима : CM (complete main)
Параметр Endianness формата : Big
Идентификатор кодека : A_AC3
Продолжительность : 2 ч. 33 м.
Вид битрейта : Постоянный
Битрейт : 448 Кбит/сек
Каналы : 6 каналов
Расположение каналов : Front: L C R, Side: L R, LFE
Частота : 48,0 КГц
Битовая глубина : 16 бит
Метод сжатия : С потерями
Размер потока : 491 Мбайт (6%)
Заголовок : Оригинал
Язык : English
Default : Нет
Forced : Нет
Текст #1
Идентификатор : 5
Формат : UTF-8
Идентификатор кодека : S_TEXT/UTF8
Идентификатор кодека/Информация : UTF-8 Plain Text
Язык : Russian
Default : Нет
Forced : Нет
Текст #2
Идентификатор : 6
Формат : UTF-8
Идентификатор кодека : S_TEXT/UTF8
Идентификатор кодека/Информация : UTF-8 Plain Text
Заголовок : SDH
Язык : English
Default : Нет
Forced : Нет
Меню
00:00:00.000 : :Chapter 1
00:08:50.780 : :Chapter 2
00:19:52.149 : :Chapter 3
00:30:18.942 : :Chapter 4
00:40:23.838 : :Chapter 5
00:49:36.974 : :Chapter 6
00:59:27.897 : :Chapter 7
01:08:24.725 : :Chapter 8
01:17:29.102 : :Chapter 9
01:29:17.393 : :Chapter 10
01:41:34.797 : :Chapter 11
01:51:36.815 : :Chapter 12
01:59:39.255 : :Chapter 13
02:11:46.690 : :Chapter 14
02:19:50.840 : :Chapter 15
02:25:54.287 : :Chapter 16
[Профиль] [ЛС]
Кто просматривает тему:

Форум Тема Автор Размер
Фильмы 2014 года Кавказская пленница! (Максим Воронков) [2014, Комедия] WEB-DLRip | iTunes BOSS 1.37 GB
Фильмы (HD Rips | 720p, 1080p) Кавказская пленница! (Максим Воронков) [2014, Россия, Комедия, WEB-DL 1080p] + Original Rus TorrentFilm 3.32 GB
Видео для КПК и Смартфонов Кавказская пленница! (Максим Воронков)[2014, комедия, WEBDLRip | КПК sergej644 340 MB
Фильмы (HD DVD, Blu-ray и BDRemux) Кавказская пленница, или Новые приключения Шурика (1966) Blu-Ray 1080p Russian Mafia 18.62 GB
Кино СССР Кавказская пленница, или Новые приключения Шурика (1967) BDRip Russian Mafia 1.46 GB
Фильмы (HD Rips | 720p, 1080p) Кавказская пленница, или Новые приключения Шурика (1969) BDRip 720p BOSS 4.27 GB
Фильмы (HD Rips | 720p, 1080p) Кавказская пленница, или Новые приключения Шурика (Леонид Гайдай) [1967, СССР, комедия, приключения, семейный, BDRip 1080p] TorrentFilm 7.95 GB
Фильмы (HD DVD, Blu-ray и BDRemux) Кавказская пленница, или Новые приключения Шурика (Леонид Гайдай) [1967, СССР, комедия, приключения, семейный, BDRip 720p] painkiller 4.37 GB
Показать сообщения:    

Текущее время: Сегодня 18:56

Часовой пояс: GMT



Вы не можете начинать темы
Вы не можете отвечать на сообщения
Вы не можете редактировать свои сообщения
Вы не можете удалять свои сообщения
Вы не можете голосовать в опросах
Вы не можете прикреплять файлы к сообщениям
Вы не можете скачивать файлы