Пленница. Побег / Flukt / Escape (2012) BDRip 1080p от KinoRay | P, L1

 
Автор Сообщение

Белочка ®

Пол:

Стаж: 5 лет 1 месяц

Сообщений: 2089



Награды: 1 (Подробнее)

Girls (Количество: 1)
Торрент-статистика

Создавать темы 12-Окт-2014 10:31

[Цитировать]

Информация о фильме
Название: Пленница. Побег
Оригинальное название: Flukt / Escape
Год выхода: 2012
Жанр: Драма, боевик
Режиссер: Роар Утхауг
В ролях: Ингрид Болсай Бердал, Tobias Santelmann, Бьорн Моан, Халлвард Холмен, Кристиан Эспедаль, Изабель Кристин Андерсен, Ирен Реппен, Ганс Джейкоб Сэнд
О фильме: Норвегия, 1363 год. После страшной эпидемии Великой Чумы, бушевавшей более десяти лет и унесшей жизни около половины населения страны, семья бедных крестьян отправляется на поиски лучшей жизни. Во время путешествия по горам они подвергаются нападению хищных и безжалостных бандитов, которые уводят в плен молодую девятнадцатилетнюю девушку Сигне. Оказавшись в лагере разбойников, Сигне понимает, что ей уготована судьба не многим лучшая, чем смерть. И что сейчас единственное для нее спасение заключается в бегстве.

Страна: Норвегия / Fantefilm, Film Fund FUZZ
Продолжительность: 01:21:37
Перевод: Профессиональный многоголосый, любительский одноголосый (Zamez, viRys)
Дата релиза: 12.10.2014
Файл
Кодек: MPEG-4 AVC
Качество: BDRip (1080p)
Видео: 1920x804, 9469 Кбит/с
Звук: Русский (AC3, 2 ch, 224 Кбит/с), (AC3, 6 ch, 448 Кбит/с), норвежский (DTS, 6 ch, 1510 Кбит/с)
Субтитры: Русские

Скриншоты


Интересно

Лучника Грима сыграл Кристиан Эспедаль, известный также как Гаал, вокалист норвежской блэк-метал-группы God Seed (бывшие Gorgoroth).
Ошибки в фильме
Когда Сигне привязана к дереву в лагере, на некоторых кадрах видно белую лямку бюстгальтера на ее правом плече.
На некоторых крупных планах обуви во время погони заметна резиновая подошва у кожаных мокасин.

Инфо-файл

Format : Matroska
Format version : Version 4 / Version 2
File size : 7.04 GiB
Duration : 1h 21mn
Overall bit rate : 12.3 Mbps
Encoded date : UTC 2014-10-12 05:41:28
Writing application : mkvmerge v7.0.0 ('Where We Going') 32bit built on Jun 9 2014 15:08:34
Writing library : libebml v1.3.0 + libmatroska v1.4.1
DURATION : 01:21:37.440000000
NUMBER_OF_FRAMES : 153045
NUMBER_OF_BYTES : 137128320
_STATISTICS_WRITING_APP : mkvmerge v7.0.0 ('Where We Going') 32bit built on Jun 9 2014 15:08:34
_STATISTICS_WRITING_DATE_UTC : 2014-10-12 05:41:28
_STATISTICS_TAGS : BPS DURATION NUMBER_OF_FRAMES NUMBER_OF_BYTES
Video
ID : 1
Format : AVC
Format/Info : Advanced Video Codec
Format profile : High@L4.1
Format settings, CABAC : Yes
Format settings, ReFrames : 5 frames
Codec ID : V_MPEG4/ISO/AVC
Duration : 1h 21mn
Bit rate : 9 469 Kbps
Nominal bit rate : 9 975 Kbps
Width : 1 920 pixels
Height : 804 pixels
Display aspect ratio : 2.40:1
Frame rate mode : Constant
Frame rate : 24.000 fps
Color space : YUV
Chroma subsampling : 4:2:0
Bit depth : 8 bits
Scan type : Progressive
Bits/(Pixel*Frame) : 0.256
Stream size : 5.40 GiB (77%)
Writing library : x264 core 129 r2230 1cffe9f
Encoding settings : cabac=1 / ref=5 / deblock=1:-3:-3 / analyse=0x3:0x113 / me=umh / subme=7 / psy=1 / psy_rd=1.00:0.00 / mixed_ref=1 / me_range=16 / chroma_me=1 / trellis=1 / 8x8dct=1 / cqm=0 / deadzone=21,11 / fast_pskip=1 / chroma_qp_offset=-2 / threads=16 / lookahead_threads=2 / sliced_threads=0 / nr=0 / decimate=1 / interlaced=0 / bluray_compat=0 / constrained_intra=0 / bframes=3 / b_pyramid=2 / b_adapt=1 / b_bias=0 / direct=3 / weightb=1 / open_gop=0 / weightp=2 / keyint=240 / keyint_min=24 / scenecut=40 / intra_refresh=0 / rc_lookahead=50 / rc=abr / mbtree=1 / bitrate=9975 / ratetol=1.0 / qcomp=0.60 / qpmin=0 / qpmax=69 / qpstep=4 / ip_ratio=1.40 / aq=1:1.00
Language : English
Default : Yes
Forced : No
DURATION : 01:21:37.459000000
NUMBER_OF_FRAMES : 117539
NUMBER_OF_BYTES : 5944988435
_STATISTICS_WRITING_APP : mkvmerge v7.0.0 ('Where We Going') 32bit built on Jun 9 2014 15:08:34
_STATISTICS_WRITING_DATE_UTC : 2014-10-12 05:41:28
_STATISTICS_TAGS : BPS DURATION NUMBER_OF_FRAMES NUMBER_OF_BYTES
Audio #1
ID : 2
Format : AC-3
Format/Info : Audio Coding 3
Mode extension : CM (complete main)
Format settings, Endianness : Big
Codec ID : A_AC3
Duration : 1h 21mn
Bit rate mode : Constant
Bit rate : 224 Kbps
Channel(s) : 2 channels
Channel positions : Front: L R
Sampling rate : 48.0 KHz
Bit depth : 16 bits
Compression mode : Lossy
Stream size : 131 MiB (2%)
Title : ПМ
Language : Russian
Default : Yes
Forced : No
Audio #2
ID : 3
Format : AC-3
Format/Info : Audio Coding 3
Mode extension : CM (complete main)
Format settings, Endianness : Big
Codec ID : A_AC3
Duration : 1h 21mn
Bit rate mode : Constant
Bit rate : 448 Kbps
Channel(s) : 6 channels
Channel positions : Front: L C R, Side: L R, LFE
Sampling rate : 48.0 KHz
Bit depth : 16 bits
Compression mode : Lossy
Stream size : 262 MiB (4%)
Title : Любительский - Zamez
Language : Russian
Default : No
Forced : No
Audio #3
ID : 4
Format : AC-3
Format/Info : Audio Coding 3
Mode extension : CM (complete main)
Format settings, Endianness : Big
Codec ID : A_AC3
Duration : 1h 21mn
Bit rate mode : Constant
Bit rate : 448 Kbps
Channel(s) : 6 channels
Channel positions : Front: L C R, Side: L R, LFE
Sampling rate : 48.0 KHz
Bit depth : 16 bits
Compression mode : Lossy
Stream size : 262 MiB (4%)
Title : Любительский
Language : Russian
Default : No
Forced : No
Audio #4
ID : 5
Format : DTS
Format/Info : Digital Theater Systems
Mode : 16
Format settings, Endianness : Big
Codec ID : A_DTS
Duration : 1h 21mn
Bit rate mode : Constant
Bit rate : 1 509 Kbps
Channel(s) : 6 channels
Channel positions : Front: L C R, Side: L R, LFE
Sampling rate : 48.0 KHz
Bit depth : 24 bits
Compression mode : Lossy
Delay relative to video : 11ms
Stream size : 881 MiB (12%)
Language : Norwegian
Default : No
Forced : No
Text
ID : 6
Format : UTF-8
Codec ID : S_TEXT/UTF8
Codec ID/Info : UTF-8 Plain Text
Language : Russian
Default : No
Forced : No
Menu
00:00:00.000 : en:00:00:00.000
00:06:53.333 : en:00:06:53.333
00:13:08.583 : en:00:13:08.583
00:22:36.667 : en:00:22:36.667
00:30:21.208 : en:00:30:21.208
00:38:52.375 : en:00:38:52.375
00:45:35.500 : en:00:45:35.500
00:50:29.667 : en:00:50:29.667
01:00:41.042 : en:01:00:41.042
01:06:54.333 : en:01:06:54.333
01:13:43.958 : en:01:13:43.958
01:16:31.667 : en:01:16:31.667
Релиз от:
[Профиль] [ЛС]
Кто просматривает тему:

Форум Тема Автор Размер
Фильмы 2014 года Кавказская пленница! (Максим Воронков) [2014, Комедия] WEB-DLRip | iTunes BOSS 1.37 GB
Фильмы (HD Rips | 720p, 1080p) Кавказская пленница! (Максим Воронков) [2014, Россия, Комедия, WEB-DL 1080p] + Original Rus TorrentFilm 3.32 GB
Видео для КПК и Смартфонов Кавказская пленница! (Максим Воронков)[2014, комедия, WEBDLRip | КПК sergej644 340 MB
Фильмы (HD DVD, Blu-ray и BDRemux) Кавказская пленница, или Новые приключения Шурика (1966) Blu-Ray 1080p Russian Mafia 18.62 GB
Кино СССР Кавказская пленница, или Новые приключения Шурика (1967) BDRip Russian Mafia 1.46 GB
Фильмы (HD Rips | 720p, 1080p) Кавказская пленница, или Новые приключения Шурика (1969) BDRip 720p BOSS 4.27 GB
Фильмы (HD Rips | 720p, 1080p) Кавказская пленница, или Новые приключения Шурика (Леонид Гайдай) [1967, СССР, комедия, приключения, семейный, BDRip 1080p] TorrentFilm 7.95 GB
Фильмы (HD DVD, Blu-ray и BDRemux) Кавказская пленница, или Новые приключения Шурика (Леонид Гайдай) [1967, СССР, комедия, приключения, семейный, BDRip 720p] painkiller 4.37 GB
Показать сообщения:    

Текущее время: Сегодня 12:48

Часовой пояс: GMT



Вы не можете начинать темы
Вы не можете отвечать на сообщения
Вы не можете редактировать свои сообщения
Вы не можете удалять свои сообщения
Вы не можете голосовать в опросах
Вы не можете прикреплять файлы к сообщениям
Вы не можете скачивать файлы