Племя / The Tribe (2014) WEB-DLRip-AVC от ExKinoRay | iTunes Russia

 
Автор Сообщение

достали все ®

Пол:

Стаж: 1 год 8 месяцев

Сообщений: 6565



Награды: 12 (Подробнее)

Top Releaser 4 (Количество: 1) Top Releaser 3 (Количество: 1) За внесенный вклад в развитие сайта (Количество: 1)
Торрент-статистика

Создавать темы 09-Авг-2015 16:40

[Цитировать]

Информация о фильме
Название: Племя
Оригинальное название: The Tribe
Год выпуска: 2014
Жанр: Драма, криминал, артхаус
Выпущено: Украина, Нидерланды, Garmata Film Production, Ukrainian State Film Agency
Режиссер: Мирослав Слабошпицкий
В ролях: Григорий Фесенко, Яна Новикова, Роза Бабий, Александр Дзядевич, Ярослав Билецкий, Иван Тишко, Александр Осадчий, Александр Сидельников, Александр Паниван, Кирилл Кошик
О фильме: Главный герой фильма, Сергей, попадает в специализированный интернат для слабослышащих, где существует криминальная организация, Племя. Он пытается занять свое место в иерархии школы и принимает участие в нескольких ограблениях. Когда Сергей влюбляется в Анну, одну из наложниц Смотрящего, ему приходится нарушить неписанные законы племени...

Файл
Качество: WEB-DLRip (AVC)
Видео: MPEG-4 AVC, 1999 Кбит/с, 1024x426, 25 кадр/с
Аудио: AC3, 6 ch, 384 Кбит/с
Размер: 2.12 ГБ
Продолжительность: 02:06:28
Перевод: Не требуется (немое кино)

Инфо-файл

Общее
Уникальный идентификатор : 232589679079853493095631152047551098817 (0xAEFB248C8B4156B5AF7BCB911EC72FC1)
Полное имя : D:ЗагрузкиPlemja.2014.x264.WEB-DLRip.(AVC).ExKinoRay.mkv
Формат : Matroska
Версия формата : Version 2
Размер файла : 2,12 Гбайт
Продолжительность : 2 ч. 11 м.
Общий поток : 2305 Кбит/сек
Название фильма : Племя.2014.Rip by: ollan
Дата кодирования : UTC 2015-08-09 14:36:57
Программа кодирования : mkvmerge v5.6.0 ('Kenya Kane') built on May 27 2012 16:44:04
Библиотека кодирования : libebml v1.2.3 + libmatroska v1.3.0
Видео
Идентификатор : 1
Формат : AVC
Формат/Информация : Advanced Video Codec
Профиль формата : High@L4.1
Параметр CABAC формата : Да
Параметр ReFrames формата : 9 кадров
Идентификатор кодека : V_MPEG4/ISO/AVC
Продолжительность : 2 ч. 11 м.
Битрейт : 1875 Кбит/сек
Номинальный битрейт : 1999 Кбит/сек
Ширина : 1024 пикселя
Высота : 426 пикселей
Соотношение сторон : 2,40:1
Режим частоты кадров : Постоянный
Частота кадров : 25,000 кадров/сек
Цветовое пространство : YUV
Субдискретизация насыщенности : 4:2:0
Битовая глубина : 8 бит
Тип развёртки : Прогрессивная
Бит/(Пиксели*Кадры) : 0.172
Размер потока : 1,73 Гбайт (81%)
Библиотека кодирования : x264 core 125 r2200 999b753
Настройки программы : cabac=1 / ref=9 / deblock=1:-3:-3 / analyse=0x3:0x133 / me=umh / subme=11 / psy=1 / psy_rd=1.00:0.10 / mixed_ref=1 / me_range=32 / chroma_me=1 / trellis=2 / 8x8dct=1 / cqm=0 / deadzone=21,11 / fast_pskip=0 / chroma_qp_offset=-3 / threads=12 / lookahead_threads=2 / sliced_threads=0 / nr=0 / decimate=0 / interlaced=0 / bluray_compat=0 / constrained_intra=0 / bframes=9 / b_pyramid=2 / b_adapt=2 / b_bias=0 / direct=3 / weightb=1 / open_gop=0 / weightp=2 / keyint=250 / keyint_min=25 / scenecut=40 / intra_refresh=0 / rc=2pass / mbtree=0 / bitrate=1999 / ratetol=1.0 / qcomp=0.60 / qpmin=0 / qpmax=69 / qpstep=4 / cplxblur=20.0 / qblur=0.5 / ip_ratio=1.40 / pb_ratio=1.30 / aq=1:1.00
Default : Да
Forced : Нет
Аудио
Идентификатор : 2
Формат : AC-3
Формат/Информация : Audio Coding 3
Расширение режима : CM (complete main)
Параметр Endianness формата : Big
Идентификатор кодека : A_AC3
Продолжительность : 2 ч. 11 м.
Вид битрейта : Постоянный
Битрейт : 384 Кбит/сек
Каналы : 6 каналов
Расположение каналов : Front: L C R, Side: L R, LFE
Частота : 48,0 КГц
Битовая глубина : 16 бит
Метод сжатия : С потерями
Размер потока : 362 Мбайт (17%)
Заголовок : iTunes Russia
Default : Да
Forced : Нет
Меню
00:00:00.000 : :Chapter 01
00:07:23.000 : :Chapter 02
00:12:16.000 : :Chapter 03
00:17:03.000 : :Chapter 04
00:24:09.000 : :Chapter 05
00:29:45.000 : :Chapter 06
00:32:57.000 : :Chapter 07
00:38:04.000 : :Chapter 08
00:41:31.000 : :Chapter 09
00:46:51.000 : :Chapter 10
00:51:05.000 : :Chapter 11
00:57:34.000 : :Chapter 12
01:04:33.000 : :Chapter 13
01:11:40.000 : :Chapter 14
01:17:52.000 : :Chapter 15
01:23:44.000 : :Chapter 16
01:27:55.000 : :Chapter 17
01:33:36.000 : :Chapter 18
01:41:25.000 : :Chapter 19
01:48:06.000 : :Chapter 20
01:57:14.000 : :Chapter 21
02:01:11.000 : :Chapter 22
02:04:20.000 : :Chapter 23

Скриншоты



Rip by:
[Профиль] [ЛС]
Кто просматривает тему:

Форум Тема Автор Размер
Фильмы (HD DVD, Blu-ray и BDRemux) Миссия невыполнима: Племя изгоев / Mission: Impossible - Rogue Nation (2015) BDRemux 1080p | Лицензия Russian Mafia 27.5 GB
Фильмы (HD Rips | 720p, 1080p) Миссия невыполнима: Племя изгоев / Mission: Impossible - Rogue Nation (2015) BDRip 1080p | iTunes Russian Mafia 17.7 GB
Фильмы (HD Rips | 720p, 1080p) Миссия невыполнима: Племя изгоев / Mission: Impossible - Rogue Nation (2015) BDRip 1080p | Лицензия BOSS 13.38 GB
Фильмы (HD Rips | 720p, 1080p) Миссия невыполнима: Племя изгоев / Mission: Impossible - Rogue Nation (2015) BDRip 720p | iTunes Russian Mafia 7.35 GB
Фильмы (HD Rips | 720p, 1080p) Миссия невыполнима: Племя изгоев / Mission: Impossible - Rogue Nation (2015) BDRip 720p от BlueBird | Лицензия Russian Mafia 9.84 GB
Фильмы 2015 года Миссия невыполнима: Племя изгоев / Mission: Impossible - Rogue Nation (2015) BDRip от Twi7ter | Лицензия Russian Mafia 1.46 GB
Фильмы 2015 года Миссия невыполнима: Племя изгоев / Mission: Impossible - Rogue Nation (2015) HDRip | iTunes Russian Mafia 1.46 GB
Фильмы 2015 года Миссия невыполнима: Племя изгоев / Mission: Impossible - Rogue Nation (Кристофер МакКуорри / Christopher McQuarrie) [2015, США, боевик, триллер, приключения, BDRip] AVO (Живов) TorrentFilm 1.47 GB
Показать сообщения:    

Текущее время: Сегодня 10:34

Часовой пояс: GMT



Вы не можете начинать темы
Вы не можете отвечать на сообщения
Вы не можете редактировать свои сообщения
Вы не можете удалять свои сообщения
Вы не можете голосовать в опросах
Вы не можете прикреплять файлы к сообщениям
Вы не можете скачивать файлы