Племяннички в Ютландии / Min søsters børn vælter Nordjylland (Мартин Миэ-Ренар / Martin Miehe-Renard) [2010, Дания, комедия, семейный, DVDRip] VO + Sub Rus + Original Dan

 
Автор Сообщение

TorrentFilm ®

Пол:

Стаж: 2 года

Сообщений: 7741



Награды: Нет

Торрент-статистика

Создавать темы 04-Июн-2015 00:04

[Цитировать]

Племяннички в Ютландии / Min søsters børn vælter Nordjylland
Страна: Дания
Жанр: комедия, семейный
Год выпуска: 2010
Продолжительность: 01:16:32
Перевод: Одноголосый закадровый
Cубтитры: русские
Оригинальная аудиодорожка: датский
Режиссер: Мартин Миэ-Ренар / Martin Miehe-Renard
В ролях: Петер Мюгинд / Peter Mygind, Матильде Хёг Кёльбен / Mathilde Høgh Kølben, Себастиан Кронби / Sebastian Kronby, Ласе Гульберг Кампер / Lasse Guldberg Kamper, Румле Рийсом / Rumle Riisom, Миле Динесен / Mille Dinesen, Дите Хансен / Ditte Hansen, Сёрен Малинг / Søren Malling и др.
Описание: Очередной фильм о приключениях профессора детской психологии и его племянников. На этот раз дядя Эрик и пятеро детей его сестры отправляются в Северную Ютландию (северная часть Дании). Он должен экспериментально подтвердить свои теории, в противном случае ему грозит увольнение. Для проведения эксперимента профессор приобрёл старую заброшенную ферму, на которой находились немецкие укрепления времён второй мировой. Но на эту землю уже давно положил глаз хозяин соседнего курорта, который не прочь расширить свои владения...
Доп. информация: Фильм взят отсюда http://torrentfilm.net/forum/viewtopic.php?t=3948467
Сэмпл: http://multi-up.com/1051216
Качество видео: DVDRip
Формат видео: AVI
Видео: MPEG-4 Visual at 2361 Кбит/сек : 720 x 384 (1.875) at 25.000 fps
Аудио 1: MPEG Audio at 128 Кбит/сек : 2 канала, 48,0 КГц(Русский)
Аудио 2: MPEG Audio at 128 Кбит/сек : 2 канала, 48,0 КГц(Датский)
Формат субтитров: softsub (SRT)
Доп. информация о субтитрах: Русские внешние (Андрей Сивцов)

MediaInfo

Общее
Полное имя : F:\С моей озвучкой\Племяннички в Ютландии\Min søsters børn vælter Nordjylland.avi
Формат : AVI
Формат/Информация : Audio Video Interleave
Размер файла : 1,41 Гбайт
Продолжительность : 1 ч. 16 м.
Общий поток : 2632 Кбит/сек
Программа кодирования : VirtualDubModRus 1.5.10.2 (build 2542/release)
Библиотека кодирования : VirtualDubMod build 2542/release
Видео
Идентификатор : 0
Формат : MPEG-4 Visual
Профиль формата : Advanced Simple@L5
Параметр BVOP формата : 2
Параметр QPel формата : Нет
Параметр GMC формата : Без точки перехода
Параметр матрицы формата : Default (MPEG)
Идентификатор кодека : XVID
Идентификатор кодека/Подсказка : XviD
Продолжительность : 1 ч. 16 м.
Битрейт : 2361 Кбит/сек
Ширина : 720 пикселей
Высота : 384 пикселя
Соотношение сторон : 1,85:1
Частота кадров : 25,000 кадров/сек
Цветовое пространство : YUV
Субдискретизация насыщенности : 4:2:0
Битовая глубина : 8 бит
Тип развёртки : Прогрессивная
Метод сжатия : С потерями
Бит/(Пиксели*Кадры) : 0.342
Размер потока : 1,26 Гбайт (90%)
Библиотека кодирования : XviD 1.2.1 (UTC 2008-12-04)
Аудио #1
Идентификатор : 1
Формат : MPEG Audio
Версия формата : Version 1
Профиль формата : Layer 3
Режим : Joint stereo
Расширение режима : MS Stereo
Идентификатор кодека : 55
Идентификатор кодека/Подсказка : MP3
Продолжительность : 1 ч. 16 м.
Вид битрейта : Постоянный
Битрейт : 128 Кбит/сек
Каналы : 2 канала
Частота : 48,0 КГц
Метод сжатия : С потерями
Размер потока : 70,1 Мбайт (5%)
Выравнивание : Соединение по промежуткам
Продолжительность промежутка : 40 мс. (1,00 видеокадр)
Время предзагрузки промежутка : 504 мс.
Библиотека кодирования : LAME3.96
Аудио #2
Идентификатор : 2
Формат : MPEG Audio
Версия формата : Version 1
Профиль формата : Layer 3
Режим : Joint stereo
Расширение режима : MS Stereo
Идентификатор кодека : 55
Идентификатор кодека/Подсказка : MP3
Продолжительность : 1 ч. 16 м.
Вид битрейта : Постоянный
Битрейт : 128 Кбит/сек
Каналы : 2 канала
Частота : 48,0 КГц
Метод сжатия : С потерями
Размер потока : 70,1 Мбайт (5%)
Выравнивание : Соединение по промежуткам
Продолжительность промежутка : 40 мс. (1,00 видеокадр)
Время предзагрузки промежутка : 504 мс.

Скриншоты

[Профиль] [ЛС]

Создавать темы 06-Авг-2015 22:29 (спустя 2 месяца 2 дня)

Топик был перенесен из форума Фильмы до 2014 года в форум Фильмы до 2012 года
sergej644
 

Создавать темы 12-Июн-2016 07:55 (спустя 1 год)

Топик был перенесен из форума Фильмы 2011 года в форум Фильмы 2010 года
Russian Mafia
 
Кто просматривает тему:

Форум Тема Автор Размер
Фильмы (HD DVD, Blu-ray и BDRemux) Миссия невыполнима: Племя изгоев / Mission: Impossible - Rogue Nation (2015) BDRemux 1080p | Лицензия Russian Mafia 27.5 GB
Фильмы (HD Rips | 720p, 1080p) Миссия невыполнима: Племя изгоев / Mission: Impossible - Rogue Nation (2015) BDRip 1080p | iTunes Russian Mafia 17.7 GB
Фильмы (HD Rips | 720p, 1080p) Миссия невыполнима: Племя изгоев / Mission: Impossible - Rogue Nation (2015) BDRip 1080p | Лицензия BOSS 13.38 GB
Фильмы (HD Rips | 720p, 1080p) Миссия невыполнима: Племя изгоев / Mission: Impossible - Rogue Nation (2015) BDRip 720p | iTunes Russian Mafia 7.35 GB
Фильмы (HD Rips | 720p, 1080p) Миссия невыполнима: Племя изгоев / Mission: Impossible - Rogue Nation (2015) BDRip 720p от BlueBird | Лицензия Russian Mafia 9.84 GB
Фильмы 2015 года Миссия невыполнима: Племя изгоев / Mission: Impossible - Rogue Nation (2015) BDRip от Twi7ter | Лицензия Russian Mafia 1.46 GB
Фильмы 2015 года Миссия невыполнима: Племя изгоев / Mission: Impossible - Rogue Nation (2015) HDRip | iTunes Russian Mafia 1.46 GB
Фильмы 2015 года Миссия невыполнима: Племя изгоев / Mission: Impossible - Rogue Nation (Кристофер МакКуорри / Christopher McQuarrie) [2015, США, боевик, триллер, приключения, BDRip] AVO (Живов) TorrentFilm 1.47 GB
Показать сообщения:    

Текущее время: Сегодня 08:54

Часовой пояс: GMT



Вы не можете начинать темы
Вы не можете отвечать на сообщения
Вы не можете редактировать свои сообщения
Вы не можете удалять свои сообщения
Вы не можете голосовать в опросах
Вы не можете прикреплять файлы к сообщениям
Вы не можете скачивать файлы