Плачущий убийца / Crying Freeman (Кристоф Ганс / Christophe Gans) [1995, Канада, Франция, Япония, США, боевик, триллер, криминал, BDRip 720p] DVO (R5) + MVO (Россия) + AVO (Гаврилов) + Original Eng + Sub (rus, eng)

 
Автор Сообщение

reversefile ®

Пол:

Стаж: 4 года 5 месяцев

Сообщений: 842

Откуда: ReverseFile.org



Награды: Нет

Торрент-статистика

Создавать темы 24-Июл-2014 17:55

[Цитировать]

Плачущий убийцаCrying Freeman«Однажды в жизни появляется идеальный убийца»- Страна: Канада, Франция, Япония, США
Жанр: боевик, триллер, криминал
Год выпуска: 1995
Продолжительность: 01:41:56-Перевод 1: Профессиональный (двухголосый закадровый) R5
Перевод 2: Профессиональный (многоголосый закадровый) ТК Россия
Перевод 3: Авторский (одноголосый закадровый) Гаврилов
Оригинальная аудиодорожка: английский
Субтитры: русские, английские (Full), английские (Forsed), английские (SDN)
Режиссер: Кристоф Ганс / Christophe Gans
В ролях: Марк Дакаскос, Джули Кондра, Рей Дон Чонг, Байрон Манн, Масая Като, Чеки Карио, Мако, Кеван Охтци, Дэбби Подовски, Мюррэй Лоури-Описание: Молодого художника Йо похищают и «перепрограммируют» в «Освободителя» - изощренного элитного убийцу, обладающего безграничными, почти фантастическими возможностями, способного ликвидировать даже главарей японской якудзы, главных противников его повелителей, Сынов Дракона.
Красавица Эму оказывается случайной свидетельницей одного из убийств, совершенных Йо. Традиция «убийц - освободителей» требует, чтобы она погибла от его руки. Вместо этого, они влюбляются друг в друга и начинают одиссею страсти и насилия.- -Качество: BDRip 720p | BDRemux 1080p | sample
Контейнер: MKV
Видео: AVC, 1280x534 (2.40:1), 8700 kbps, 23,976 fps, 0,531 bpp
Аудио №1: русский / AC3 / 5.1 / 48 kHz / 640 kbps / 16 bit || DVO
Аудио №2: русский / AC3 / 2.0 / 48 kHz / 192 kbps / 16 bit || MVO
Аудио №3: русский / AC3 / 2.0 / 48 kHz / 192 kbps / 16 bit || AVO
Аудио №4: английский / AC3 / 5.1 / 48 kHz / 640 kbps / 16 bit
Навигация по главам: есть
Субтитры: русские, англицкие .srt-

Скриншоты

Media Info

General
Unique ID : 194377483872221479814604492587082546087 (0x923BBDDE1CC46BE28FAAE0B2ECC17BA7)
Complete name : E:\Plachushchyi.ubyica.1995.BDRip.720p.by.Дядя_Лёша.mkv
Format : Matroska
Format version : Version 4 / Version 2
File size : 7.40 GiB
Duration : 1h 41mn
Overall bit rate : 10.4 Mbps
Encoded date : UTC 2014-07-24 12:58:15
Writing application : mkvmerge v7.0.0 ('Where We Going') 32bit built on Jun 9 2014 15:08:34
Writing library : libebml v1.3.0 + libmatroska v1.4.1
_STATISTICS_WRITING_APP : mkvmerge v7.0.0 ('Where We Going') 32bit built on Jun 9 2014 15:08:34
_STATISTICS_WRITING_DATE_UTC : 2014-07-24 12:58:15
_STATISTICS_TAGS : BPS DURATION NUMBER_OF_FRAMES NUMBER_OF_BYTES
DURATION : 01:37:57.586000000
NUMBER_OF_FRAMES : 1546
NUMBER_OF_BYTES : 9851168
Attachment : Yes
Video
ID : 1
Format : AVC
Format/Info : Advanced Video Codec
Format profile : High@L4.1
Format settings, CABAC : Yes
Format settings, ReFrames : 9 frames
Codec ID : V_MPEG4/ISO/AVC
Duration : 1h 41mn
Bit rate : 8 700 Kbps
Width : 1 280 pixels
Height : 534 pixels
Display aspect ratio : 2.40:1
Frame rate mode : Constant
Frame rate : 23.976 fps
Color space : YUV
Chroma subsampling : 4:2:0
Bit depth : 8 bits
Scan type : Progressive
Bits/(Pixel*Frame) : 0.531
Stream size : 6.07 GiB (82%)
Writing library : x264 core 142 r2453 ea0ca51
Encoding settings : cabac=1 / ref=9 / deblock=1:-3:-3 / analyse=0x3:0x113 / me=umh / subme=11 / psy=1 / psy_rd=1.00:0.15 / mixed_ref=1 / me_range=48 / chroma_me=1 / trellis=2 / 8x8dct=1 / cqm=0 / deadzone=21,11 / fast_pskip=0 / chroma_qp_offset=-3 / threads=3 / lookahead_threads=1 / sliced_threads=0 / nr=0 / decimate=0 / interlaced=0 / bluray_compat=0 / constrained_intra=0 / bframes=10 / b_pyramid=2 / b_adapt=2 / b_bias=0 / direct=3 / weightb=1 / open_gop=0 / weightp=2 / keyint=240 / keyint_min=24 / scenecut=40 / intra_refresh=0 / rc_lookahead=60 / rc=2pass / mbtree=0 / bitrate=8700 / ratetol=1.0 / qcomp=0.75 / qpmin=0 / qpmax=69 / qpstep=4 / cplxblur=20.0 / qblur=0.5 / vbv_maxrate=60000 / vbv_bufsize=50000 / nal_hrd=none / filler=0 / ip_ratio=1.40 / pb_ratio=1.30 / aq=1:0.80
Default : Yes
Forced : No
Audio #1
ID : 2
Format : AC-3
Format/Info : Audio Coding 3
Mode extension : CM (complete main)
Format settings, Endianness : Big
Codec ID : A_AC3
Duration : 1h 41mn
Bit rate mode : Constant
Bit rate : 640 Kbps
Channel(s) : 6 channels
Channel positions : Front: L C R, Side: L R, LFE
Sampling rate : 48.0 KHz
Bit depth : 16 bits
Compression mode : Lossy
Stream size : 467 MiB (6%)
Title : DVO R5
Language : Russian
Default : Yes
Forced : No
Audio #2
ID : 3
Format : AC-3
Format/Info : Audio Coding 3
Format profile : Dolby Digital
Mode extension : CM (complete main)
Format settings, Endianness : Big
Codec ID : A_AC3
Duration : 1h 41mn
Bit rate mode : Constant
Bit rate : 192 Kbps
Channel(s) : 2 channels
Channel positions : Front: L R
Sampling rate : 48.0 KHz
Bit depth : 16 bits
Compression mode : Lossy
Stream size : 140 MiB (2%)
Title : MVO (Россия)
Language : Russian
Default : No
Forced : No
Audio #3
ID : 4
Format : AC-3
Format/Info : Audio Coding 3
Format profile : Dolby Digital
Mode extension : CM (complete main)
Format settings, Endianness : Big
Codec ID : A_AC3
Duration : 1h 41mn
Bit rate mode : Constant
Bit rate : 192 Kbps
Channel(s) : 2 channels
Channel positions : Front: L R
Sampling rate : 48.0 KHz
Bit depth : 16 bits
Compression mode : Lossy
Stream size : 140 MiB (2%)
Title : AVO Гаврилов
Language : Russian
Default : No
Forced : No
Audio #4
ID : 5
Format : AC-3
Format/Info : Audio Coding 3
Mode extension : CM (complete main)
Format settings, Endianness : Big
Codec ID : A_AC3
Duration : 1h 41mn
Bit rate mode : Constant
Bit rate : 640 Kbps
Channel(s) : 6 channels
Channel positions : Front: L C R, Side: L R, LFE
Sampling rate : 48.0 KHz
Bit depth : 16 bits
Compression mode : Lossy
Stream size : 467 MiB (6%)
Title : Original
Language : English
Default : No
Forced : No
Text #1
ID : 6
Format : PGS
Muxing mode : zlib
Codec ID : S_HDMV/PGS
Codec ID/Info : The same subtitle format used on BDs/HD-DVDs
Title : Russian
Language : Russian
Default : No
Forced : No
Text #2
ID : 7
Format : PGS
Muxing mode : zlib
Codec ID : S_HDMV/PGS
Codec ID/Info : The same subtitle format used on BDs/HD-DVDs
Title : Eng full
Language : English
Default : No
Forced : No
Text #3
ID : 8
Format : PGS
Muxing mode : zlib
Codec ID : S_HDMV/PGS
Codec ID/Info : The same subtitle format used on BDs/HD-DVDs
Title : Eng forsed
Language : English
Default : No
Forced : No
Text #4
ID : 9
Format : PGS
Muxing mode : zlib
Codec ID : S_HDMV/PGS
Codec ID/Info : The same subtitle format used on BDs/HD-DVDs
Title : Eng SDN
Language : English
Default : No
Forced : No
Menu
00:00:00.000 : :Chapter 01
00:03:34.964 : :Chapter 02
00:10:11.235 : :Chapter 03
00:11:53.087 : :Chapter 04
00:15:56.413 : :Chapter 05
00:20:16.089 : :Chapter 06
00:22:51.244 : :Chapter 07
00:26:30.714 : :Chapter 08
00:30:58.022 : :Chapter 09
00:33:44.397 : :Chapter 10
00:40:29.593 : :Chapter 11
00:45:50.581 : :Chapter 12
00:48:46.965 : :Chapter 13
00:50:47.294 : :Chapter 14
00:53:30.290 : :Chapter 15
00:59:04.415 : :Chapter 16
01:01:08.373 : :Chapter 17
01:06:21.143 : :Chapter 18
01:07:48.064 : :Chapter 19
01:11:23.153 : :Chapter 20
01:14:47.649 : :Chapter 21
01:20:24.945 : :Chapter 22
01:25:44.597 : :Chapter 23
01:35:17.002 : :Chapter 24

Лог х264

x264 [info]: frame I:908 Avg QP:16.01 size:148207
x264 [info]: frame P:30679 Avg QP:18.13 size: 75658
x264 [info]: frame B:115065 Avg QP:20.13 size: 36429
[Профиль] [ЛС]
Показать сообщения:    

Текущее время: Сегодня 12:51

Часовой пояс: GMT



Вы не можете начинать темы
Вы не можете отвечать на сообщения
Вы не можете редактировать свои сообщения
Вы не можете удалять свои сообщения
Вы не можете голосовать в опросах
Вы не можете прикреплять файлы к сообщениям
Вы не можете скачивать файлы