Плачущая 2 / La Llorona 2 / The Wailer 2 (Пол Миллер / Paul Miller) [2007, Мексика, США, ужасы, DVDRip] VO (Хэм)

 
Автор Сообщение

painkiller ®

Стаж: 2 года 3 месяца

Сообщений: 582



Награды: Нет

Торрент-статистика

Создавать темы 14-Авг-2014 09:11

[Цитировать]

Плачущая 2 / La Llorona 2 / The Wailer 2
Страна: Мексика, США
Жанр: ужасы
Год выпуска: 2007
Продолжительность: 1:26:16
Перевод: Одноголосый закадровый (Хэм). Куски на испанском не переведены.
Cубтитры: нет
Режиссер: Пол Миллер / Paul Miller
В ролях: Роджер Кадни, Сет Майклс, Надя ван де Вен, Антонио Мануэль де Аско
Описание: Профессор МакБрайд едет в Мексику на поиски пропавшей дочери-туристки, в которую, как он подозревает, вселился дух Плачущей. Его приезд совпадает с мексиканским праздником Дня мёртвых и участившимися в районе случаями зверских убийств. Местная полиция не одобряет, что кто-то занимается расследованием у них за спиной, но профессор находит себе помощника в лице таксиста Чавы.
Доп. информация: IMDB / Кинопоиск / Ragedevil - благодарность за рип
Сэмпл: http://multi-up.com/980147
Качество видео: DVDRip
Формат видео: AVI
Видео: XVID, 704x416, 1,692;1, 25,0 fps, 1186 kbps
Аудио: MP3, 48 kHz, 128 kbps, 2.0

MediaInfo

General
Complete name : D:\Movs\The.Wailer.2.2007.Rus.avi
Format : AVI
Format/Info : Audio Video Interleave
File size : 817 MiB
Duration : 1h 26mn
Overall bit rate : 1 324 Kbps
Writing application : VirtualDubMod 1.5.4.1 (build 2178/release)
Writing library : VirtualDub build 32817/release
Video
ID : 0
Format : MPEG-4 Visual
Format profile : Advanced Simple@L5
Format settings, BVOP : 1
Format settings, QPel : No
Format settings, GMC : No warppoints
Format settings, Matrix : Custom
Codec ID : XVID
Codec ID/Hint : XviD
Duration : 1h 26mn
Bit rate : 1 186 Kbps
Width : 704 pixels
Height : 416 pixels
Display aspect ratio : 1.692
Frame rate : 25.000 fps
Color space : YUV
Chroma subsampling : 4:2:0
Bit depth : 8 bits
Scan type : Progressive
Compression mode : Lossy
Bits/(Pixel*Frame) : 0.162
Stream size : 732 MiB (90%)
Writing library : XviD 1.2.1 (UTC 2008-12-04)
Audio
ID : 1
Format : MPEG Audio
Format version : Version 1
Format profile : Layer 3
Mode : Joint stereo
Mode extension : MS Stereo
Codec ID : 55
Codec ID/Hint : MP3
Duration : 1h 26mn
Bit rate mode : Constant
Bit rate : 128 Kbps
Channel(s) : 2 channels
Sampling rate : 48.0 KHz
Compression mode : Lossy
Stream size : 79.0 MiB (10%)
Alignment : Split accross interleaves
Interleave, duration : 40 ms (1.00 video frame)
Interleave, preload duration : 500 ms

Скриншот c названием фильма

Скриншоты

[Профиль] [ЛС]

Создавать темы 06-Авг-2015 23:15 (спустя 11 месяцев 23 дня)

Топик был перенесен из форума Фильмы до 2014 года в форум Фильмы до 2012 года
sergej644
 
Показать сообщения:    

Текущее время: Сегодня 07:08

Часовой пояс: GMT



Вы не можете начинать темы
Вы не можете отвечать на сообщения
Вы не можете редактировать свои сообщения
Вы не можете удалять свои сообщения
Вы не можете голосовать в опросах
Вы не можете прикреплять файлы к сообщениям
Вы не можете скачивать файлы