Пластик / Plastic (2014) BDRip 720p | ATV | D | Лицензия

 
Автор Сообщение

sergej644 ®

Пол:

Стаж: 4 года 11 месяцев

Сообщений: 6046

Откуда: Soviet Union



Награды: Нет

Торрент-статистика

Создавать темы 10-Фев-2015 08:57

[Цитировать]

Пластик / Plastic (2014) BDRip-AVC 720p | ATV | D | Лицензия
«Всё до пенни»
-Название: Пластик
Оригинальное название: Plastic
Год выпуска: 2014
Производство: Великобритания / Gateway Films
Жанр: боевик, криминал, реальные события
Режиссер: Джулиан Джилби
В ролях: Эдвард Спелирс, Уилл Поултер, Элфи Оуэн-Аллен, Себастьян Де Соуза, Эмма Ригби, Томас Кречманн, Грэм МакТавиш, Малис Джоу, Терри Стоун, Эшли Чин
Описание:
Фильм основан на реальной истории. Банде друзей удалось проникнуть в одну из самых больших в мире компаний, которая работает с кредитными картами. Им удается провернуть одну из самых дерзких краж в британской истории.

Продолжительность: 01:41:24
Перевод: Профессиональный (дублированный) (Лицензия)
Cубтитры: Отсутствуют
Качество: BDRip [720p]
Видео: MPEG-4 AVC/H.264, 1280x538 (2.40:1), 3 800 kbps, 24.000 fps
Аудио 1: Русский/Профессиональный (дублированный) (Лицензия), AAC / 2.0 / 160 Kbps / 48.0 KHz
Аудио 2: Русский/Профессиональный (дублированный) (Лицензия), AC3 / 5.1 / 448 Kbps / 48.0 KHz

iTunes Meta Tags

Sort Name: Plastic
XID: Apple:vendor_id:2014-723270
Content ID: 864581930
Copyright: © 2014 Paramount Pictures. All rights reserved
ScreenWriters: Джулиан Джилби, Уилл Джилби, Крис Ховард
Producers: Алессандро Форте, Крис Ховард, Лорд Киркхэм
Director: Джулиан Джилби
Cast: Ed Speleers (Sam), Will Poulter (Fordy), Alfie Allen (Yatesey), Sebastian de Souza (Rafa), Emma Rigby (Frankie), Thomas Kretschmann (Marcel), Graham McTavish (Steve Dawson)
Rating: 15
Long Deion: Фильм основан на реальной истории. Банде друзей удалось проникнуть в одну из самых больших в мире компаний, которая работает с кредитными картами. Им удается провернуть одну из самых дерзких краж в британской истории.
Deion: Фильм основан на реальной истории. Банде друзей удалось проникнуть в одну из самых больших в мире компаний, которая работает с кредитными картами. Им удается провернуть одну из самых дерзких краж в британской истории.
Release Date: 2014-05-02T07:00:00Z
Genre: Thriller
Artist: Julian Gilbey
Name: Пластик
Comments: «Всё до пенни»

MediaInfo

General
Complete name : C:CREATE264mod1outPlastic.2014.BDRip.720p.D.m4v
Format : MPEG-4
Codec ID : M4V
File size : 3.12 GiB
Duration : 1h 41mn
Overall bit rate mode : Variable
Overall bit rate : 4 385 Kbps
Movie name : Пластик
Performer : Julian Gilbey
Genre : Thriller
ContentType : Short Film
Deion : Фильм основан на реальной истории. Банде друзей удалось проникнуть в одну из самых больших в мире компаний, которая работает с кредитными картами. Им удается провернуть одну из самых дерзких краж в британской истории.
Recorded date : UTC 2014-05-02 07:00:00
Encoded date : UTC 2014-09-30 06:14:56
Tagged date : UTC 2014-09-30 06:36:35
Copyright : © 2014 Paramount Pictures. All rights reserved
Cover : Yes
Comment : «Всё до пенни»
ContentRating : uk-movie|15|350|
Title/Sort : Plastic
LongDeion : Фильм основан на реальной истории. Банде друзей удалось проникнуть в одну из самых больших в мире компаний, которая работает с кредитными картами. Им удается провернуть одну из самых дерзких краж в британской истории.
HDVideo : Yes
AppleStoreCatalogID : 864581930
Vendor : Apple:vendor_id:2014-723270
Video
ID : 1
Format : AVC
Format/Info : Advanced Video Codec
Format profile : High@L4.1
Format settings, CABAC : Yes
Format settings, ReFrames : 9 frames
Codec ID : avc1
Codec ID/Info : Advanced Video Coding
Duration : 1h 41mn
Bit rate : 3 770 Kbps
Maximum bit rate : 17.9 Mbps
Width : 1 280 pixels
Height : 538 pixels
Display aspect ratio : 2.40:1
Frame rate mode : Constant
Frame rate : 24.000 fps
Color space : YUV
Chroma subsampling : 4:2:0
Bit depth : 8 bits
Scan type : Progressive
Bits/(Pixel*Frame) : 0.228
Stream size : 2.68 GiB (86%)
Language : English
Encoded date : UTC 2014-09-30 06:14:56
Tagged date : UTC 2014-09-30 06:15:15
Matrix coefficients : BT.709
Audio #1
ID : 2
Format : AAC
Format/Info : Advanced Audio Codec
Format profile : LC
Codec ID : 40
Duration : 1h 41mn
Bit rate mode : Variable
Bit rate : 159 Kbps
Maximum bit rate : 200 Kbps
Channel(s) : 2 channels
Channel positions : Front: L R
Sampling rate : 48.0 KHz
Compression mode : Lossy
Stream size : 116 MiB (4%)
Title : DUB
Language : Russian
Encoded date : UTC 2014-09-30 06:15:10
Tagged date : UTC 2014-09-30 06:15:15
Audio #2
ID : 3
Format : AC-3
Format/Info : Audio Coding 3
Mode extension : CM (complete main)
Format settings, Endianness : Big
Codec ID : ac-3
Duration : 1h 41mn
Bit rate mode : Constant
Bit rate : 448 Kbps
Channel(s) : 6 channels
Channel positions : Front: L C R, Side: L R, LFE
Sampling rate : 48.0 KHz
Bit depth : 16 bits
Compression mode : Lossy
Stream size : 326 MiB (10%)
Title : DUB
Language : Russian
Encoded date : UTC 2014-09-30 06:15:13
Tagged date : UTC 2014-09-30 06:15:15

x264 log

x264 [info]: frame I:1292 Avg QP:13.69 size:124327
x264 [info]: frame P:31950 Avg QP:18.07 size: 42272
x264 [info]: frame B:113557 Avg QP:20.85 size: 12076
x264 [info]: consecutive B-frames: 2.2% 2.4% 7.5% 22.0% 19.8% 35.7% 5.8% 1.6% 1.3% 0.5% 0.3% 0.1% 0.1% 0.2% 0.5%
x264 [info]: mb I I16..4: 11.1% 58.6% 30.3%
x264 [info]: mb P I16..4: 1.3% 9.4% 1.7% P16..4: 29.2% 34.2% 13.3% 3.8% 0.8% skip: 6.2%
x264 [info]: mb B I16..4: 0.1% 1.1% 0.1% B16..8: 34.0% 19.2% 3.1% direct: 6.0% skip:36.4% L0:41.2% L1:42.3% BI:16.5%
x264 [info]: 8x8 transform intra:73.3% inter:54.6%
x264 [info]: coded y,uvDC,uvAC intra: 82.5% 82.6% 67.8% inter: 25.2% 25.8% 10.9%
x264 [info]: i16 v,h,dc,p: 32% 17% 9% 41%
x264 [info]: i8 v,h,dc,ddl,ddr,vr,hd,vl,hu: 11% 10% 10% 8% 12% 12% 12% 11% 13%
x264 [info]: i4 v,h,dc,ddl,ddr,vr,hd,vl,hu: 15% 11% 7% 8% 13% 13% 12% 10% 12%
x264 [info]: i8c dc,h,v,p: 37% 26% 20% 17%
x264 [info]: Weighted P-Frames: Y:4.1% UV:3.0%
x264 [info]: ref P L0: 53.8% 10.0% 15.4% 6.8% 4.6% 3.4% 2.7% 1.6% 1.6% 0.2% 0.0%
x264 [info]: ref B L0: 79.6% 9.4% 4.6% 2.2% 1.6% 1.2% 0.9% 0.5%
x264 [info]: ref B L1: 93.0% 7.0%
x264 [info]: kb/s:3770.17

Screenshots

[Профиль] [ЛС]
Показать сообщения:    

Текущее время: Сегодня 23:32

Часовой пояс: GMT



Вы не можете начинать темы
Вы не можете отвечать на сообщения
Вы не можете редактировать свои сообщения
Вы не можете удалять свои сообщения
Вы не можете голосовать в опросах
Вы не можете прикреплять файлы к сообщениям
Вы не можете скачивать файлы