План Z / Plan Z / 2016 / ЛО / (2016) WEBRip 1080p | L1

 
Автор Сообщение

BOSS ®

Пол:

Стаж: 3 года

Сообщений: 7616

Откуда: ODESSA



Награды: 22 (Подробнее)

Mega Seeder 1 (Количество: 1) Mega Seeder 5 (Количество: 1) Top Seeder 3 (Количество: 1)
Торрент-статистика

Создавать темы 06-Авг-2017 16:28

[Цитировать]

Производство: Великобритания, Imaginarium Tower, Stronghold, Zoghogg Studios
Жанр: Ужасы
Режиссер: Стюарт Бреннан
Актеры: Стюарт Бреннан, Марк Пол Уэйк, Виктория Моррисон, Юджин Хоран, Терри Дири, Брук Барфитт, Изабелла Кэйли, Натали Целино, Ион Ридж, Томас Кумбз
Описание:У одного человека был план, которого надо придерживаться, если вдруг случится зомби-апокалипсис.,Но когда на его пути встречаются выжившие, он должен собрать всю свою волю в кулак, чтобы придерживаться этого плана или набраться мужества, чтобы изменить его.

Продолжительность: 01:27:19
Качество видео: WEBRip 1080p
Перевод: Любительский, одноголосый [Хихикающий доктор]

Отзыв с imdb

Гуглоперевод
Хотя я не думаю, что это был очень хороший зомби фильм (я думал, что это было больше символов история, чем, скажем зомби фильм), я думаю, имел большое Plot и хорошая аллегория делает его через жизнь ... Не Just A Bad Time Но через жизнь в целом ... Будьте готовы, есть план, придерживаться своего плана, не бойтесь изменить / изменить план, Всегда делать правильные вещи, поступай с другими ... И так Forth ... Исполняющий обязанности это не хуже, я видел в зомби кино ... Мне было интересно Достаточно посмотреть, как это закончилось ... Я Imagine For The General American просмотра зомби фильм, который медленно изменяющемся (типовое Английский Фильмы) Может показаться скучными Но этот фильм совсем не скучно ... Я нашел этот фильм больше в соответствии с «Мэгги» (Отличная Character Study Вокруг зомби-апокалипсиса Показывая Арнольд Шварценеггер), как говорят типичный зомби фильм .. . Мой рейтинг IMDb 6 из 10
Видео: AVC/H.264, 1920x816, ~5080 Kbps
Аудио 1: Русский (АС3, 2 ch, 128 Кбит/с)
Аудио 2: Английский (AC3, 2 ch, 128 Кбит/с)
Семпл

Mediainfo:

Общее
Уникальный идентификатор : 254854344192080998597592496885806337674 (0xBFBB294A8ABDB61C89ABEB10D8F70E8A)
Полное имя : E:MMMMPlan.Z.2016.1080p.WEBRip.x264.mkv
Формат : Matroska
Версия формата : Version 4 / Version 2
Размер файла : 3,32 Гбайт
Продолжительность : 1 ч. 27 м.
Общий поток : 5444 Кбит/сек
Дата кодирования : UTC 2017-08-06 14:42:32
Программа кодирования : mkvmerge v6.9.1 ('Blue Panther') 64bit built on Apr 18 2014 18:23:38
Библиотека кодирования : libebml v1.3.0 + libmatroska v1.4.1
Видео
Идентификатор : 1
Формат : AVC
Формат/Информация : Advanced Video Codec
Профиль формата : High@L4.1
Параметр CABAC формата : Да
Параметр ReFrames формата : 5 кадров
Идентификатор кодека : V_MPEG4/ISO/AVC
Продолжительность : 1 ч. 27 м.
Битрейт : 5080 Кбит/сек
Ширина : 1920 пикселей
Высота : 816 пикселей
Соотношение сторон : 2,35:1
Режим частоты кадров : Постоянный
Частота кадров : 23,976 (24000/1001) кадра/сек
Цветовое пространство : YUV
Субдискретизация насыщенности : 4:2:0
Битовая глубина : 8 бит
Тип развёртки : Прогрессивная
Бит/(Пиксели*Кадры) : 0.135
Размер потока : 3,10 Гбайт (93%)
Библиотека кодирования : x264 core 152 r2851 ba24899
Настройки программы : cabac=1 / ref=5 / deblock=1:-3:-3 / analyse=0x3:0x133 / me=umh / subme=8 / psy=1 / psy_rd=1.00:0.15 / mixed_ref=1 / me_range=16 / chroma_me=1 / trellis=2 / 8x8dct=1 / cqm=0 / deadzone=21,11 / fast_pskip=0 / chroma_qp_offset=-2 / threads=12 / lookahead_threads=2 / sliced_threads=0 / nr=0 / decimate=1 / interlaced=0 / bluray_compat=0 / constrained_intra=0 / bframes=3 / b_pyramid=2 / b_adapt=2 / b_bias=0 / direct=3 / weightb=1 / open_gop=0 / weightp=2 / keyint=240 / keyint_min=23 / scenecut=40 / intra_refresh=0 / rc_lookahead=50 / rc=crf / mbtree=1 / crf=17.0 / qcomp=0.60 / qpmin=0 / qpmax=69 / qpstep=4 / ip_ratio=1.40 / aq=3:0.80
Язык : English
Default : Да
Forced : Нет
Аудио #1
Идентификатор : 2
Формат : AC-3
Формат/Информация : Audio Coding 3
Расширение режима : CM (complete main)
Параметр Endianness формата : Big
Идентификатор кодека : A_AC3
Продолжительность : 1 ч. 27 м.
Вид битрейта : Постоянный
Битрейт : 128 Кбит/сек
Каналы : 2 канала
Расположение каналов : Front: L R
Частота : 48,0 КГц
Частота кадров : 31,250 кадров/сек (1536 spf)
Метод сжатия : С потерями
Размер потока : 79,9 Мбайт (2%)
Заголовок : xixidoktor
Язык : Russian
Default : Да
Forced : Нет
Аудио #2
Идентификатор : 3
Формат : E-AC-3
Формат/Информация : Audio Coding 3
Параметр Endianness формата : Big
Идентификатор кодека : A_EAC3
Продолжительность : 1 ч. 27 м.
Вид битрейта : Постоянный
Битрейт : 128 Кбит/сек
Каналы : 2 канала
Расположение каналов : Front: L R
Частота : 48,0 КГц
Частота кадров : 187,500 кадров/сек (256 spf)
Метод сжатия : С потерями
Размер потока : 79,9 Мбайт (2%)
Заголовок : original
Язык : English
Default : Нет
Forced : Нет

Скриншоты:


[Профиль] [ЛС]
Кто просматривает тему:

Показать сообщения:    

Текущее время: Сегодня 19:06

Часовой пояс: GMT



Вы не можете начинать темы
Вы не можете отвечать на сообщения
Вы не можете редактировать свои сообщения
Вы не можете удалять свои сообщения
Вы не можете голосовать в опросах
Вы не можете прикреплять файлы к сообщениям
Вы не можете скачивать файлы