План Мэгги / Maggie's Plan (2015) BDRip-AVC | Р

 
Автор Сообщение

Russian Mafia ®

Пол:

Стаж: 1 год 8 месяцев

Сообщений: 4247



Награды: 10 (Подробнее)

Mega Seeder 5 (Количество: 1) Top Releaser 5 (Количество: 1) Top Releaser 4 (Количество: 1)
Торрент-статистика

Создавать темы 12-Авг-2016 04:22

[Цитировать]

План Мэгги / Maggie's Plan
Страна: США
Производство: Franklin Street, Freedom Media, Hall Monitor, Hyperion Media Group, Locomotive, Round Films
Год выпуска: 2015
Жанр: драма, мелодрама, комедия
Продолжительность: 01:38:53
Режиссер: Ребекка Миллер
Авторы сценария: Ребекка Миллер, Карен Ринальди
В ролях: Грета Гервиг, Билл Хейдер, Монте Грин, Трэвис Фиммел, Фреди Уолкер, Итан Хоук, Майя Рудольф, Брендан Титли
Описание: Мэгги хочет стать матерью и планирует прибегнуть к искусственному оплодотворению, но её планы нарушаются, когда она знакомится с антропологом Джоном, состоящим в несчастливом браке с Жоржеттой. Мэгги выходит замуж за Джона, но через какое-то время начинает чувствовать себя несчастной, и у неё возникает новый план...

Перевод: Профессиональный (многоголосый, закадровый)
Субтитры: русские (forced + full), английские (forced + full + SDH)-Качество: BDRip-AVC
Формат: МКV
Видео кодек: AVC
Аудио кодек: АС3
Видео: 1120x608 (1.85:1), 23.976 fps, MPEG-4 AVC ~2 255 kbps avg
Аудио №1: 48.0 kHz, AC3 Dolby Digital, 3/2 (L,C,R,l,r) + LFE ch, ~448 kbps | RUS
Аудио №2: 48.0 kHz, AC3 Dolby Digital, 3/2 (L,C,R,l,r) + LFE ch, ~448 kbps | ENG
Формат субтитров: UTF-8 Plain Text
Дата премьеры (мир): 12 сентября 2015

Media Info

General
Format : Matroska
Format version : Version 4 / Version 2
File size : 2.18 GiB
Duration : 1h 38mn
Overall bit rate : 3 154 Kbps
Movie name : План Мэгги / Maggie's Plan (2015) :: AFM ::
Encoded date : UTC 2016-08-11 19:56:32
Writing application : mkvmerge v8.3.0 ('Over the Horizon') 32bit
Writing library : libebml v1.3.1 + libmatroska v1.4.2
Video
ID : 1
Format : AVC
Format/Info : Advanced Video Codec
Format profile : High@L4.1
Format settings, CABAC : Yes
Format settings, ReFrames : 10 frames
Codec ID : V_MPEG4/ISO/AVC
Duration : 1h 38mn
Bit rate : 2 255 Kbps
Width : 1 120 pixels
Height : 608 pixels
Display aspect ratio : 1.85:1
Frame rate mode : Constant
Frame rate : 23.976 fps
Color space : YUV
Chroma subsampling : 4:2:0
Bit depth : 8 bits
Scan type : Progressive
Bits/(Pixel*Frame) : 0.138
Stream size : 1.52 GiB (70%)
Title : BDRip by AFM
Writing library : x264 core 148 r2705+54 9f484c1 t_mod_Custom [8-bit@all X86_64]
Encoding settings : cabac=1 / ref=10 / deblock=1:-2:-2 / analyse=0x3:0x113 / me=umh / subme=10 / psy=1 / fade_compensate=0.00 / psy_rd=1.00:0.00 / mixed_ref=1 / me_range=32 / chroma_me=1 / trellis=2 / 8x8dct=1 / cqm=0 / deadzone=21,11 / fast_pskip=0 / chroma_qp_offset=-2 / threads=6 / lookahead_threads=1 / sliced_threads=0 / nr=0 / decimate=0 / interlaced=0 / bluray_compat=0 / constrained_intra=0 / fgo=0 / bframes=12 / b_pyramid=2 / b_adapt=2 / b_bias=0 / direct=3 / weightb=1 / open_gop=0 / weightp=2 / keyint=250 / keyint_min=23 / scenecut=40 / intra_refresh=0 / rc_lookahead=40 / rc=2pass / mbtree=0 / bitrate=2255 / ratetol=1.0 / qcomp=0.65 / qpmin=0:0:0 / qpmax=69:69:69 / qpstep=4 / cplxblur=20.0 / qblur=0.5 / vbv_maxrate=50000 / vbv_bufsize=62500 / nal_hrd=none / filler=0 / ip_ratio=1.35 / pb_ratio=1.30 / aq=3:0.90 / aq-sensitivity=10.00 / aq-factor=1.00:1.00:1.00 / aq2=0 / aq3=0
Language : English
Default : Yes
Forced : No
Audio #1
ID : 2
Format : AC-3
Format/Info : Audio Coding 3
Mode extension : CM (complete main)
Format settings, Endianness : Big
Codec ID : A_AC3
Duration : 1h 38mn
Bit rate mode : Constant
Bit rate : 448 Kbps
Channel(s) : 6 channels
Channel positions : Front: L C R, Side: L R, LFE
Sampling rate : 48.0 KHz
Compression mode : Lossy
Stream size : 317 MiB (14%)
Title : MVO, AC3 5.1 ~448 kbps
Language : Russian
Default : Yes
Forced : No
Audio #2
ID : 3
Format : AC-3
Format/Info : Audio Coding 3
Mode extension : CM (complete main)
Format settings, Endianness : Big
Codec ID : A_AC3
Duration : 1h 38mn
Bit rate mode : Constant
Bit rate : 448 Kbps
Channel(s) : 6 channels
Channel positions : Front: L C R, Side: L R, LFE
Sampling rate : 48.0 KHz
Compression mode : Lossy
Stream size : 317 MiB (14%)
Title : Original, AC3 5.1 ~448 kbps
Language : English
Default : No
Forced : No
Text #1
ID : 4
Format : UTF-8
Codec ID : S_TEXT/UTF8
Codec ID/Info : UTF-8 Plain Text
Title : forced
Language : Russian
Default : Yes
Forced : No
Text #2
ID : 5
Format : UTF-8
Codec ID : S_TEXT/UTF8
Codec ID/Info : UTF-8 Plain Text
Language : Russian
Default : No
Forced : No
Text #3
ID : 6
Format : UTF-8
Codec ID : S_TEXT/UTF8
Codec ID/Info : UTF-8 Plain Text
Title : forced
Language : English
Default : No
Forced : No
Text #4
ID : 7
Format : UTF-8
Codec ID : S_TEXT/UTF8
Codec ID/Info : UTF-8 Plain Text
Language : English
Default : No
Forced : No
Text #5
ID : 8
Format : UTF-8
Codec ID : S_TEXT/UTF8
Codec ID/Info : UTF-8 Plain Text
Title : SDH
Language : English
Default : No
Forced : No
Menu
00:00:00.000 : en:00:00:00.000
00:08:13.785 : en:00:08:13.785
00:13:19.799 : en:00:13:19.799
00:21:15.441 : en:00:21:15.441
00:24:47.986 : en:00:24:47.986
00:29:57.337 : en:00:29:57.337
00:37:34.586 : en:00:37:34.586
00:41:05.463 : en:00:41:05.463
00:44:16.988 : en:00:44:16.988
00:51:20.327 : en:00:51:20.327
00:55:59.314 : en:00:55:59.314
01:02:23.114 : en:01:02:23.114
01:09:14.817 : en:01:09:14.817
01:14:18.496 : en:01:14:18.496
01:20:01.422 : en:01:20:01.422
01:29:41.668 : en:01:29:41.668

Скриншоты

[Профиль] [ЛС]
Кто просматривает тему:

Показать сообщения:    

Текущее время: Сегодня 00:11

Часовой пояс: GMT



Вы не можете начинать темы
Вы не можете отвечать на сообщения
Вы не можете редактировать свои сообщения
Вы не можете удалять свои сообщения
Вы не можете голосовать в опросах
Вы не можете прикреплять файлы к сообщениям
Вы не можете скачивать файлы