План Мэгги / Maggie's Plan (2015) BDRemux 1080p от ExKinoRay | Лицензия

 
Автор Сообщение

Russian Mafia ®

Пол:

Стаж: 1 год 8 месяцев

Сообщений: 4256



Награды: 10 (Подробнее)

За внесенный вклад в развитие сайта (Количество: 1) Mega Seeder 1 (Количество: 1) Top Releaser 2 (Количество: 1)
Торрент-статистика

Создавать темы 11-Авг-2016 12:18

[Цитировать]

Информация о фильме
Название: План Мэгги
Оригинальное название: Maggie's Plan
Год выхода: 2015
Жанр: драма, мелодрама, комедия
Режиссер: Ребекка Миллер
В ролях: Грета Гервиг, Билл Хейдер, Монте Грин, Трэвис Фиммел, Фреди Уолкер, Итан Хоук, Майя Рудольф, Брендан Титли, Стивен Лин
О фильме:
Мэгги хочет стать матерью и планирует прибегнуть к искусственному оплодотворению, но её планы нарушаются, когда она знакомится с антропологом Джоном, состоящим в несчастливом браке с Жоржеттой. Мэгги выходит замуж за Джона, но через какое-то время начинает чувствовать себя несчастной, и у неё возникает новый план.

Страна: США
Студия: Franklin Street, Freedom Media, Hyperion Media Group, Locomotive, Round Films
Продолжительность: 01:38:52
Перевод: Профессиональный многоголосый (закадровый) | Blu-Ray US
Файл
Кодек: MPEG-4
Качество: BDRemux 1080p
Видео: 1920x1080, 24.4 Mbit/s, 23.976 fps
Звук:
Аудио #01: 48 kHz, AC3, 5.1, 640 Kbps | Профессиональный многоголосый (закадровый) | Blu-Ray US |
Аудио #02: 48 kHz, DTS-HD MA, 5.1, 2112 kbps | Оригинал |
Субтитры: Русские (forced,full), английские (full,SDH)

MI

General
Unique ID : 212639838396980135476152690180897970791 (0x9FF8F1767656D7C39F807033716D1A67)
Complete name : G:VideoMaggies.Plan.2015.BDREMUX.1080p.ExKinoRay.mkv
Format : Matroska
Format version : Version 4 / Version 2
File size : 18.8 GiB
Duration : 1h 38mn
Overall bit rate mode : Variable
Overall bit rate : 27.1 Mbps
Movie name : Maggies.Plan.2015.BDREMUX.1080p.ExKinoRay
Encoded date : UTC 2016-08-11 11:24:55
Writing application : mkvmerge v8.3.0 ('Over the Horizon') 64bit
Writing library : libebml v1.3.1 + libmatroska v1.4.2
Video
ID : 1
Format : AVC
Format/Info : Advanced Video Codec
Format profile : High@L4.1
Format settings, CABAC : Yes
Format settings, ReFrames : 2 frames
Codec ID : V_MPEG4/ISO/AVC
Duration : 1h 38mn
Bit rate mode : Variable
Bit rate : 24.4 Mbps
Width : 1 920 pixels
Height : 1 080 pixels
Display aspect ratio : 16:9
Frame rate mode : Constant
Frame rate : 23.976 (24000/1001) fps
Color space : YUV
Chroma subsampling : 4:2:0
Bit depth : 8 bits
Scan type : Progressive
Bits/(Pixel*Frame) : 0.491
Stream size : 16.8 GiB (90%)
Language : English
Default : Yes
Forced : No
Audio #1
ID : 2
Format : AC-3
Format/Info : Audio Coding 3
Mode extension : CM (complete main)
Format settings, Endianness : Big
Codec ID : A_AC3
Duration : 1h 38mn
Bit rate mode : Constant
Bit rate : 640 Kbps
Channel(s) : 6 channels
Channel positions : Front: L C R, Side: L R, LFE
Sampling rate : 48.0 KHz
Frame rate : 31.250 fps (1536 spf)
Compression mode : Lossy
Stream size : 453 MiB (2%)
Title : MVO [Blu-Ray US]
Language : Russian
Default : Yes
Forced : No
Audio #2
ID : 3
Format : DTS
Format/Info : Digital Theater Systems
Format profile : MA / Core
Mode : 16
Format settings, Endianness : Big
Codec ID : A_DTS
Duration : 1h 38mn
Bit rate mode : Variable / Constant
Bit rate : 2 112 Kbps / 1 509 Kbps
Channel(s) : 6 channels
Channel positions : Front: L C R, Side: L R, LFE
Sampling rate : 48.0 KHz
Frame rate : 93.750 fps (512 spf)
Bit depth : 16 bits
Compression mode : Lossless / Lossy
Stream size : 1.46 GiB (8%)
Title : Original
Language : English
Default : No
Forced : No
Text #1
ID : 4
Format : UTF-8
Codec ID : S_TEXT/UTF8
Codec ID/Info : UTF-8 Plain Text
Duration : 1h 6mn
Bit rate : 1 bps
Count of elements : 14
Stream size : 700 Bytes (0%)
Title : Forced
Language : Russian
Default : Yes
Forced : No
Text #2
ID : 5
Format : UTF-8
Codec ID : S_TEXT/UTF8
Codec ID/Info : UTF-8 Plain Text
Duration : 1h 33mn
Bit rate : 120 bps
Count of elements : 1441
Stream size : 83.1 KiB (0%)
Title : Full
Language : Russian
Default : No
Forced : No
Text #3
ID : 6
Format : UTF-8
Codec ID : S_TEXT/UTF8
Codec ID/Info : UTF-8 Plain Text
Duration : 1h 35mn
Bit rate : 82 bps
Count of elements : 1531
Stream size : 57.4 KiB (0%)
Title : Full
Language : English
Default : No
Forced : No
Text #4
ID : 7
Format : UTF-8
Codec ID : S_TEXT/UTF8
Codec ID/Info : UTF-8 Plain Text
Duration : 1h 35mn
Bit rate : 84 bps
Count of elements : 1580
Stream size : 59.1 KiB (0%)
Title : SDH
Language : English
Default : No
Forced : No
Menu
00:00:00.000 : en:00:00:00.000
00:08:13.785 : en:00:08:13.785
00:13:19.799 : en:00:13:19.799
00:21:15.441 : en:00:21:15.441
00:24:47.986 : en:00:24:47.986
00:29:57.337 : en:00:29:57.337
00:37:34.586 : en:00:37:34.586
00:41:05.463 : en:00:41:05.463
00:44:16.988 : en:00:44:16.988
00:51:20.327 : en:00:51:20.327
00:55:59.314 : en:00:55:59.314
01:02:23.114 : en:01:02:23.114
01:09:14.817 : en:01:09:14.817
01:14:18.496 : en:01:14:18.496
01:20:01.422 : en:01:20:01.422
01:29:41.668 : en:01:29:41.668

Скриншоты

Релиз от: Автор релиза:
[Профиль] [ЛС]
Кто просматривает тему:

Показать сообщения:    

Текущее время: Сегодня 00:35

Часовой пояс: GMT



Вы не можете начинать темы
Вы не можете отвечать на сообщения
Вы не можете редактировать свои сообщения
Вы не можете удалять свои сообщения
Вы не можете голосовать в опросах
Вы не можете прикреплять файлы к сообщениям
Вы не можете скачивать файлы