План Б / The Back-up Plan (Алан Пол / Alan Poul) [2010, США, мелодрама, комедия, BDRip-AVC] Dub + Original (Eng) + Subs (Rus, Eng)

 
Автор Сообщение

TorrentFilm ®

Пол:

Стаж: 2 года

Сообщений: 7741



Награды: Нет

Торрент-статистика

Создавать темы 09-Июл-2015 00:07

[Цитировать]

План Б / The Back-up Plan
«Влюбиться. Выйти замуж. Родить ребёнка. Порядок произвольный»
- Страна: США
Жанр: мелодрама, комедия
Год выпуска: 2010
Продолжительность: 01:44:14-Перевод: Профессиональный (полное дублирование)
Оригинальная аудиодорожка: English
Cубтитры: Русские (полные), English (full + full SDH)
Навигация по главам: присутствует - 16 глав-Режиссер: Алан Пол / Alan Poul
В ролях: Дженнифер Лопез, Алекс О`Лахлан, Михаэлла Уоткинс, Эрик Кристиан Олсен, Энтони Андерсон, Норин ДеВулф, Мелисса МакКарти, Том Босли, Мэрибет Монро, Дэннил Харрис-Описание: Каждая женщина за 30, мечтающая стать матерью, должна иметь «План Б», и у одинокой Зои такой план был. Отчаявшись встретить своего суженого, она прибегла к деликатной процедуре по искусственному оплодотворению. И в тот самый день, когда тест на беременность показал положительный результат, она встретила Стэна. Вот только как рассказать ему о своём «интересном положении» и при этом не разрушить только что завязавшиеся отношения.-
Download sample-Качество видео: BDRip-AVC | исх. Blu-ray disc 1080p - thx: BLUE_LIFE
Формат: MKV-Видео: 1120x476 (2.35:1), 23.976 fps, H.264 ~2 700 kbps avg, 0.207 bit/pixel
Аудио №1: 48.0 kHz, AC3 Dolby Digital, 3/2 (L,C,R,l,r) + LFE ch, ~448 kbps | Профессиональный (полное дублирование)
Аудио №2: 48.0 kHz, AC3 Dolby Digital, 3/2 (L,C,R,l,r) + LFE ch, ~448 kbps | English
Субтитры №1: Русские (полные) | *.srt
Субтитры №2: English (full) | *.srt
Субтитры №3: English (full SDH) | *.srt-

MediaInfo

General
Unique ID : 212843435910828561548313123439287252749 (0xA02027985E1241E7B862C8994440B70D)
Complete name : D:\Фильмы\Рипы\The Back-up Plan.2010.BDRip-AVC.eFK tRuAVC.mkv
Format : Matroska
Format version : Version 4 / Version 2
File size : 2.63 GiB
Duration : 1h 44mn
Overall bit rate : 3 608 Kbps
Movie name : План Б / The Back-up Plan (2010) - Release for rutracker
Encoded date : UTC 2015-07-05 09:29:38
Writing application : mkvmerge v7.6.0 ('Garden of Dreams') 64bit built on Feb 8 2015 13:04:34
Writing library : libebml v1.3.1 + libmatroska v1.4.2
Attachements : cover.png
DURATION : 01:42:07.370000000
NUMBER_OF_FRAMES : 1579
NUMBER_OF_BYTES : 52139
_STATISTICS_WRITING_APP : mkvmerge v7.6.0 ('Garden of Dreams') 64bit built on Feb 8 2015 13:04:34
_STATISTICS_WRITING_DATE_UT : 2015-07-05 09:29:38
_STATISTICS_TAGS : BPS DURATION NUMBER_OF_FRAMES NUMBER_OF_BYTES
Video
ID : 1
Format : AVC
Format/Info : Advanced Video Codec
Format profile : High@L4.1
Format settings, CABAC : Yes
Format settings, ReFrames : 14 frames
Codec ID : V_MPEG4/ISO/AVC
Duration : 1h 44mn
Bit rate : 2 640 Kbps
Width : 1 120 pixels
Height : 476 pixels
Display aspect ratio : 2.35:1
Frame rate mode : Constant
Frame rate : 23.976 fps
Color space : YUV
Chroma subsampling : 4:2:0
Bit depth : 8 bits
Scan type : Progressive
Bits/(Pixel*Frame) : 0.207
Stream size : 1.92 GiB (73%)
Title : eFK tRuAVC
Writing library : x264 core 146 r2538kMod 121396c
Encoding settings : cabac=1 / ref=14 / deblock=1:-2:-2 / analyse=0x3:0x133 / me=umh / subme=11 / psy=1 / fade_compensate=0.00 / psy_rd=1.00:0.00 / mixed_ref=1 / me_range=48 / chroma_me=1 / trellis=2 / 8x8dct=1 / cqm=0 / deadzone=21,11 / fast_pskip=0 / chroma_qp_offset=-2 / threads=12 / lookahead_threads=3 / sliced_threads=0 / nr=0 / decimate=1 / interlaced=0 / bluray_compat=0 / constrained_intra=0 / fgo=0 / bframes=16 / b_pyramid=2 / b_adapt=2 / b_bias=0 / direct=3 / weightb=1 / open_gop=0 / weightp=2 / keyint=250 / keyint_min=23 / scenecut=40 / intra_refresh=0 / rc_lookahead=60 / rc=crf / mbtree=1 / crf=17.4000 / qcomp=0.60 / qpmin=0 / qpmax=69 / qpstep=4 / vbv_maxrate=50000 / vbv_bufsize=62500 / crf_max=0.0 / nal_hrd=none / filler=0 / ip_ratio=1.40 / aq=3:0.95
Language : English
Default : Yes
Forced : No
Color primaries : BT.709
Transfer characteristics : BT.709
Matrix coefficients : BT.709
Color range : Limited
DURATION : 01:44:14.248000000
NUMBER_OF_FRAMES : 149952
NUMBER_OF_BYTES : 2117353361
_STATISTICS_WRITING_APP : mkvmerge v7.6.0 ('Garden of Dreams') 64bit built on Feb 8 2015 13:04:34
_STATISTICS_WRITING_DATE_UT : 2015-07-05 09:29:38
_STATISTICS_TAGS : BPS DURATION NUMBER_OF_FRAMES NUMBER_OF_BYTES
Audio #1
ID : 2
Format : AC-3
Format/Info : Audio Coding 3
Mode extension : CM (complete main)
Format settings, Endianness : Big
Codec ID : A_AC3
Duration : 1h 44mn
Bit rate mode : Constant
Bit rate : 448 Kbps
Channel(s) : 6 channels
Channel positions : Front: L C R, Side: L R, LFE
Sampling rate : 48.0 KHz
Bit depth : 16 bits
Compression mode : Lossy
Stream size : 334 MiB (12%)
Title : Dub
Language : Russian
Default : Yes
Forced : No
Audio #2
ID : 3
Format : AC-3
Format/Info : Audio Coding 3
Mode extension : CM (complete main)
Format settings, Endianness : Big
Codec ID : A_AC3
Duration : 1h 44mn
Bit rate mode : Constant
Bit rate : 448 Kbps
Channel(s) : 6 channels
Channel positions : Front: L C R, Side: L R, LFE
Sampling rate : 48.0 KHz
Bit depth : 16 bits
Compression mode : Lossy
Stream size : 334 MiB (12%)
Language : English
Default : No
Forced : No
Text #1
ID : 4
Format : UTF-8
Codec ID : S_TEXT/UTF8
Codec ID/Info : UTF-8 Plain Text
Title : полные
Language : Russian
Default : No
Forced : No
Text #2
ID : 5
Format : UTF-8
Codec ID : S_TEXT/UTF8
Codec ID/Info : UTF-8 Plain Text
Title : full
Language : English
Default : No
Forced : No
Text #3
ID : 6
Format : UTF-8
Codec ID : S_TEXT/UTF8
Codec ID/Info : UTF-8 Plain Text
Title : full SDH
Language : English
Default : No
Forced : No
Menu
00:00:00.000 : :Chapter 01
00:06:42.944 : :Chapter 02
00:14:02.258 : :Chapter 03
00:21:47.139 : :Chapter 04
00:26:19.286 : :Chapter 05
00:31:49.741 : :Chapter 06
00:39:25.196 : :Chapter 07
00:45:40.863 : :Chapter 08
00:50:55.010 : :Chapter 09
00:57:05.046 : :Chapter 10
01:03:26.636 : :Chapter 11
01:09:56.609 : :Chapter 12
01:14:20.706 : :Chapter 13
01:22:11.635 : :Chapter 14
01:27:08.181 : :Chapter 15
01:31:52.924 : :Chapter 16

x264 log

x264 [info]: frame I:1278 Avg QP:13.84 size:120544
x264 [info]: frame P:30931 Avg QP:17.70 size: 32775
x264 [info]: frame B:117743 Avg QP:20.72 size: 8064
x264 [info]: consecutive B-frames: 1.6% 2.3% 4.4% 24.0% 18.4% 34.0% 6.2% 5.8% 1.3% 0.4% 0.3% 1.1% 0.3% 0.0% 0.0% 0.0% 0.0%
x264 [info]: mb I I16..4: 3.7% 68.8% 27.4%
x264 [info]: mb P I16..4: 0.3% 6.3% 1.2% P16..4: 28.9% 35.7% 17.9% 3.4% 0.4% skip: 6.0%
x264 [info]: mb B I16..4: 0.0% 0.5% 0.1% B16..8: 37.0% 19.4% 3.6% direct: 3.9% skip:35.6% L0:43.3% L1:45.1% BI:11.6%
x264 [info]: 8x8 transform intra:78.0% inter:57.6%
x264 [info]: direct mvs spatial:100.0% temporal:0.0%
x264 [info]: coded y,uvDC,uvAC intra: 94.2% 91.3% 76.4% inter: 24.3% 17.8% 6.5%
x264 [info]: i16 v,h,dc,p: 32% 16% 8% 45%
x264 [info]: i8 v,h,dc,ddl,ddr,vr,hd,vl,hu: 10% 8% 6% 10% 14% 15% 13% 13% 12%
x264 [info]: i4 v,h,dc,ddl,ddr,vr,hd,vl,hu: 13% 8% 5% 9% 15% 14% 13% 11% 12%
x264 [info]: i8c dc,h,v,p: 46% 18% 18% 18%
x264 [info]: Weighted P-Frames: Y:2.9% UV:1.4%
x264 [info]: ref P L0: 42.7% 10.4% 17.4% 6.3% 5.7% 3.7% 3.8% 1.9% 1.9% 1.4% 1.5% 1.1% 1.2% 1.0% 0.1% 0.0%
x264 [info]: ref B L0: 73.5% 10.9% 5.1% 2.7% 2.1% 1.5% 1.3% 0.8% 0.6% 0.5% 0.5% 0.4% 0.1%
x264 [info]: ref B L1: 93.2% 6.8%
x264 [info]: kb/s:2708.37
x264 [total]: encoded 149952 frames, 8.16 fps, 2708.37 kb/s, duration 5:06:26.74
[Профиль] [ЛС]

Создавать темы 06-Авг-2015 22:25 (спустя 28 дней)

Топик был перенесен из форума Фильмы до 2014 года в форум Фильмы до 2012 года
sergej644
 

Создавать темы 12-Июн-2016 07:55 (спустя 11 месяцев 3 дня)

Топик был перенесен из форума Фильмы 2011 года в форум Фильмы 2010 года
Russian Mafia
 
Кто просматривает тему:

Показать сообщения:    

Текущее время: Сегодня 23:29

Часовой пояс: GMT



Вы не можете начинать темы
Вы не можете отвечать на сообщения
Вы не можете редактировать свои сообщения
Вы не можете удалять свои сообщения
Вы не можете голосовать в опросах
Вы не можете прикреплять файлы к сообщениям
Вы не можете скачивать файлы