Пиpаньи 3DD в 3Д / Рiranha 3DD in 3D (Джон Гулажер / John Gulager) [2012, Ужасы, Триллер, Комедия, BDrip-AVC] Half OverUnder / Вертикальная анаморфная стереопара

 
Автор Сообщение

TorrentFilm ®

Пол:

Стаж: 2 года

Сообщений: 7741



Награды: Нет

Торрент-статистика

Создавать темы 01-Янв-2016 00:08

[Цитировать]

-Пиpаньи 3DD / Рiranha 3DD Год выпуска: 2012
Страна: США (Dimension Films, Radius TWC)
Жанр: Ужасы, Триллер, Комедия
Продолжительность: 01:22:41
Перевод: Дубляж (Лицензия)
Русские субтитры: есть
Режиссер: Джон Гулажер / John Gulager--Роли исполняли (дублировали):
Мэдди - Даниэль Панабэйкер
Барри - Мэтт Буш (Михаил Тихонов)
Чет - Дэвид Кокнер
Шелби - Катрина Боуден
Кайл - Крис Зилка (Иван Жарков)
Джош - Жан-Люк Билодо
Мистер Гудмен - Кристофер Ллойд
Клейтон - Гэри Бьюзи (Сергей Чихачев)
Большой Дейв - Адриан Мартинез
Тревис - Пол Джеймс
Эшли - Мэган Тэнди (Анастасия Нестеренко)
...................
Фэллон - Винг Реймз--Описание: Доисторические твари больше не будут ограничиваться поеданием туристов на озере, а проникнут через водопроводные и канализационные сети в бассейны и иные искусственные водоемы нового аквапарка под названием Wilderness Waters. Именно там и развернется основное действие.
Доп. информация: Не допускать к просмотру несовершеннолетних! Очень много "недетских" сцен.

Знаете ли вы, что...

  • Миранда Косгров прослушивалась на роль Мэдди, которую в итоге получила Даниэль Панабэйкер.
  • Первый фильм в серии «Пираний», который полностью снят в 3D.
Премьера: 11 мая 2012 (23 августа 2012)
Бюджет: $20 000 000
Кассовые сборы: $5 076 216

.
Проверено на встроенном плейере ТВ Samsung UE-C7000--Качество: BDrip
Контейнер: MKV
Формат 3D: Half OverUnder / Вертикальная анаморфная стереопара
Порядок ракурсов: левый ракурс первый
Видео кодек: x264
Аудио кодек: AC3-Видео: AVC / 23,976 fps / 1920х1080p / 18.8 Mbps
Аудио:
#1 - Русский / AC3 / 48 KHz / 5.1 ch / 384 Kbps (Лицензия)
#2 - Английский / AC3 / 48 KHz / 5.1 ch / 640 Kbps
Субтитры Вшитые softsub (SRT):
#1 - Русские Полные
#2 - English Full
#3 - English SDH

MediaInfo

General
Unique ID : 184829154304077271211807248632967857179 (0x8B0CCCDF9BD8B5709B8AA47DDD44041B)
Complete name : G:\Downloads\Piranha3DD(3D)2012.halfOU(Ash61).mkv
Format : Matroska
Format version : Version 2
File size : 11.7 GiB
Duration : 1h 22mn
Overall bit rate : 20.2 Mbps
Movie name : Piranha 3DD (3D) 2012 (by Ash61)
Encoded date : UTC 2012-09-26 06:38:57
Writing application : mkvmerge v5.8.0 ('No Sleep / Pillow') built on Sep 2 2012 15:37:04
Writing library : libebml v1.2.3 + libmatroska v1.3.0
Video
ID : 1
Format : AVC
Format/Info : Advanced Video Codec
Format profile : High@L4.1
Format settings, CABAC : Yes
Format settings, ReFrames : 4 frames
Codec ID : V_MPEG4/ISO/AVC
Duration : 1h 22mn
Bit rate : 18.8 Mbps
Width : 1 920 pixels
Height : 1 080 pixels
Display aspect ratio : 16:9
Frame rate mode : Constant
Frame rate : 23.976 fps
Color space : YUV
Chroma subsampling : 4:2:0
Bit depth : 8 bits
Scan type : Progressive
Bits/(Pixel*Frame) : 0.377
Stream size : 10.8 GiB (93%)
Title : BDrip by Ash61
Writing library : x264 core 119 r2106 07efeb4
Encoding settings : cabac=1 / ref=4 / deblock=1:-3:-3 / analyse=0x3:0x113 / me=umh / subme=9 / psy=1 / psy_rd=1.00:0.15 / mixed_ref=1 / me_range=16 / chroma_me=1 / trellis=2 / 8x8dct=1 / cqm=0 / deadzone=21,11 / fast_pskip=1 / chroma_qp_offset=-3 / threads=12 / sliced_threads=0 / nr=0 / decimate=1 / interlaced=0 / bluray_compat=0 / constrained_intra=0 / bframes=6 / b_pyramid=2 / b_adapt=2 / b_bias=0 / direct=3 / weightb=1 / open_gop=0 / weightp=2 / keyint=250 / keyint_min=23 / scenecut=40 / intra_refresh=0 / rc_lookahead=60 / rc=crf / mbtree=1 / crf=16.5 / qcomp=0.60 / qpmin=10 / qpmax=51 / qpstep=4 / vbv_maxrate=40000 / vbv_bufsize=40000 / crf_max=0.0 / nal_hrd=none / frame-packing=4 / ip_ratio=1.40 / aq=1:0.70
Language : English
Default : Yes
Forced : No
Audio #1
ID : 2
Format : AC-3
Format/Info : Audio Coding 3
Mode extension : CM (complete main)
Format settings, Endianness : Big
Codec ID : A_AC3
Duration : 1h 22mn
Bit rate mode : Constant
Bit rate : 384 Kbps
Channel(s) : 6 channels
Channel positions : Front: L C R, Side: L R, LFE
Sampling rate : 48.0 KHz
Bit depth : 16 bits
Compression mode : Lossy
Stream size : 227 MiB (2%)
Title : Дубляж - Лицензия
Language : Russian
Default : Yes
Forced : No
Audio #2
ID : 3
Format : AC-3
Format/Info : Audio Coding 3
Mode extension : CM (complete main)
Format settings, Endianness : Big
Codec ID : A_AC3
Duration : 1h 22mn
Bit rate mode : Constant
Bit rate : 640 Kbps
Channel(s) : 6 channels
Channel positions : Front: L C R, Side: L R, LFE
Sampling rate : 48.0 KHz
Bit depth : 16 bits
Compression mode : Lossy
Stream size : 379 MiB (3%)
Title : Original
Language : English
Default : No
Forced : No
Text #1
ID : 4
Format : UTF-8
Codec ID : S_TEXT/UTF8
Codec ID/Info : UTF-8 Plain Text
Title : Полные
Language : Russian
Default : No
Forced : No
Text #2
ID : 5
Format : UTF-8
Codec ID : S_TEXT/UTF8
Codec ID/Info : UTF-8 Plain Text
Title : Full
Language : English
Default : No
Forced : No
Text #3
ID : 6
Format : UTF-8
Codec ID : S_TEXT/UTF8
Codec ID/Info : UTF-8 Plain Text
Title : SDH
Language : English
Default : No
Forced : No
Menu
00:00:00.000 : :1
00:06:20.880 : :2
00:11:47.874 : :3
00:14:14.062 : :4
00:18:44.332 : :5
00:21:37.546 : :6
00:25:05.045 : :7
00:31:39.481 : :8
00:36:03.870 : :9
00:41:50.341 : :10
00:45:10.124 : :11
00:51:20.911 : :12
00:57:03.253 : :13
01:00:12.692 : :14
01:05:28.424 : :15
01:10:43.406 : :16

Скриншоты

Для оценки качества 3Д - Анимированные скрины

Для оценки качества 3Д - Чёрно-белые скрины в анаглифе red/cyan

[Профиль] [ЛС]
Кто просматривает тему:

Показать сообщения:    

Текущее время: Сегодня 12:30

Часовой пояс: GMT



Вы не можете начинать темы
Вы не можете отвечать на сообщения
Вы не можете редактировать свои сообщения
Вы не можете удалять свои сообщения
Вы не можете голосовать в опросах
Вы не можете прикреплять файлы к сообщениям
Вы не можете скачивать файлы