Пищевая фабрика / Food Factory, Сезон 2 (25 серий из 26) [2013, Научно-популярный, HDTV 1080i]

 
Автор Сообщение

TorrentFilm ®

Пол:

Стаж: 2 года

Сообщений: 7741



Награды: Нет

Торрент-статистика

Создавать темы 16-Мар-2015 00:01

[Цитировать]

Пищевая фабрика / Food Factory, Сезон 2 (25 серий из 26)
Год выпуска: 2013
Страна: Канада
Студия: A Cineflix (Food Factory 2) Inc.
Жанр: Научно-популярный
Продолжительность: 25 x ~ 00:21:50
Перевод: Профессиональный (одноголосый закадровый)
Описание: Новое поучительное и завораживающее шоу проводит нас за кулисы удивительных производственных линий, чтобы показать, как в действительности делается еда. Вам когда-нибудь было любопытно узнать, каким образом овощи для супа фирмы "Campbell" нарезаны столь идеально для каждой банки или как делаются ириски? Откройте секреты популярных канадских продуктов в новой увлекательной программе "Пищевая фабрика". За каждой упаковкой чипсов, за каждой банкой пива, плиткой шоколада или буханкой хлеба стоит гигантская производственная линия, благодаря которой все эти продукты становятся доступными массам. Каждая серия позволяет заглянуть в производственный цех и подробно рассмотреть процесс изготовления четырех канадских продуктов - от ингредиентов до используемых технологий. От макарон и песто до жевательной резинки и канадского виски - узнайте о чудесном процессе превращения исходного сырья во всеми любимые продукты.
Сэмпл: http://multi-up.com/1031681
Тип релиза: HDTV 1080i
Контейнер: TS
Видео: MPEG4 Video (H264) 1920x1080 25fps ~6500 Kbps
Аудио 1: Russian [AC3, 48000 Hz, 5.1, 384 kb/s]
Аудио 2: English [AC3, 48000 Hz, 5.1, 384 kb/s]

Содержание

01. All You Cone Eat
02. Солёное сладкое / Salty and Sweet - Пончики, Кимчи, Эскимо, Соль
03. Лепёшки и палочки / All Bar Naan - Вафельные рожки, Канадское печенье, Лепешки Нан, Шоколадные конфеты с ликером
04. Еда на счастье / Food Fortunes - Печенья с предсказанием, Пикантный сыр ''Ока'', Острая Сальса, Мороженое-сэндвич
05. Королева приправ / Cut The Mustard - Конфеты ''Тутси ролл'', Горчица, Злаковые батончики с орехами, Сливочно-апельсиновые конфеты
06. Угощение из Джорджии / Spring in Georgia - Спринг роллы, Сыр Бри, Конфеты с орехом пекан, Заморженный йогурт
07. Любимый соус / Getting Saucy - Кетчуп, Леденцы на палочке с начинкой, Крендели, Тирамису
08. Такос и Тикка/ Tikka My Breath Away - Жевательные червячки, Соус ''Тикка Масала'', Шоколадные пасхальные яйца, Хрустящие такоc
09. Из сахара с любовью / From Sugar With Love - Мятные леденцы, Хрустящие сырные палочки, Конфеты-сердечки с любовными посланиями, Приправа ''Чатни''
10. Двойное удовольствие / Double Trouble - Ириски в шоколаде с орехом, Пицца в виде конвертиков с начинкой, Двойные леденцы на палочке, Имбирное пиво
11. Разноцветные конфеты / Colourful Candy - Фруктовые жевательные конфеты, Холодный зеленый чай Arizona, Тертый сыр, Турецкие ириски
12. Про лапшу / Use Your Noodle - Лапша быстрого приготовления, Шоколадные конфеты с зефирной начинкой, Соус Барбекю, Шарики из арахисовой пасты в шоколаде
13 Чи Ча Самбар / Chee Cha Sambur - Желейное драже, Консервы из овощей, Мексиканские хлебцы, Сырки в шоколаде
14. Хотите сосиску в тесте? / Fancy A Sausage Roll? - Пасхальные сладости из зефира, Сосиски в тесте, Кисло-сладкие леденцы на палочке, Хрустящие питы
15. Желе-драже / Hill of Beans - Конфеты ''Jellybeans'', Манты по-корейски, Корнуэльские пирожки, Глазированная соломка
16. Йогурт Уэльский / Welch Rare-Bite - Арахис в глазури, Шотландские пирожки, Фрукты в йогуртовой глазури, Мятно-шоколадные конфеты
17. Меня зовут Бунди / The Name's Boondi - Сахарное печенье, Греческие пироги-улитки, Двойной торт, Пряная индийская закуска
18. Сладость "Абба-заба" / Abba Zaba Doo - Баточники ''Абба-заба'', Буррито, Консервированные вишенки, Жареный рис с беконом
19. Батончики "Роки-Роуд" / The Rocky Road - Батончики ''Роки-Роуд'', Ржаной хлеб, Японский морковно-имбирный соус, Шоколадно-ванильное печенье
20. Где-то за радугой / Over the Rainbow - Тянучки из воздушного риса, Вегетарианские сосиски, Шоколадные мини-булочки, Васаби
21. Поставьте чайник / Put The Kettle On - Картофельные чипсы, Овсяные печенья с джемом, Средиземноморские хлебцы, Бизе
22. Не сегодня, Жозефина / Not Tonight Josephine - Пакоры, Наполеон, Хумус, Соленая карамель
23. Лакомые кусочки / Chip Off The Old Block - Печенье с шоколадом, Баба гануш, Яблочный штрудель, Сливочный соус Ранч
24. Бобовое попурри / Where You Bean? - Чизкейк с орехами, Вишня в шоколаде, Консервированные бобы, Сидр
25. Дом, который построил Санта-Клаус / The House That Santa Built - Пряничный домик, Фруктовый кекс, Шоколадный Санта, Эгг-ног
26. Вкусные поленья / Yule Love This - Рождественское полено, Карамельная трость, Печенье Шортбред, Мятная корочка

MediaInfo

GeneralID : 6 (0x6)Complete name : G:\Video\Пищевая фабрика\Пищевая фабрика HD\S02E09 Из сахара с любовью (Мятные леденцы, Хрустящие сырные палочки, Конфеты-сердечки с любовными посланиями, Приправа ''Чатни'').tsFormat : MPEG-TSFile size : 1.19 GiBDuration : 21mn 55sOverall bit rate mode : VariableOverall bit rate : 7 745 Kbps
VideoID : 3200 (0xC80)Menu ID : 3203 (0xC83)Format : AVCFormat/Info : Advanced Video CodecFormat profile : High@L4.0Format settings, CABAC : YesFormat settings, ReFrames : 4 framesCodec ID : 27Duration : 21mn 55sBit rate : 6 586 KbpsWidth : 1 920 pixelsHeight : 1 080 pixelsDisplay aspect ratio : 16:9Frame rate : 25.000 fpsStandard : ComponentColor space : YUVChroma subsampling : 4:2:0Bit depth : 8 bitsScan type : InterlacedScan order : Top Field FirstBits/(Pixel*Frame) : 0.127Stream size : 1.01 GiB (85%)Color primaries : BT.709Transfer characteristics : BT.709Matrix coefficients : BT.709Color range : Limited
Audio #1ID : 3202 (0xC82)Menu ID : 3203 (0xC83)Format : AC-3Format/Info : Audio Coding 3Mode extension : CM (complete main)Format settings, Endianness : BigCodec ID : 6Duration : 21mn 55sBit rate mode : ConstantBit rate : 384 KbpsChannel(s) : 6 channelsChannel positions : Front: L C R, Side: L R, LFESampling rate : 48.0 KHzBit depth : 16 bitsCompression mode : LossyStream size : 60.2 MiB (5%)
Audio #2ID : 3203 (0xC83)Menu ID : 3203 (0xC83)Format : AC-3Format/Info : Audio Coding 3Mode extension : CM (complete main)Format settings, Endianness : BigCodec ID : 6Duration : 21mn 55sBit rate mode : ConstantBit rate : 384 KbpsChannel(s) : 6 channelsChannel positions : Front: L C R, Side: L R, LFESampling rate : 48.0 KHzBit depth : 16 bitsCompression mode : LossyStream size : 60.2 MiB (5%)

Скриншоты


Релиз группы:
1-й сезон
[Профиль] [ЛС]
Показать сообщения:    

Текущее время: Сегодня 10:08

Часовой пояс: GMT



Вы не можете начинать темы
Вы не можете отвечать на сообщения
Вы не можете редактировать свои сообщения
Вы не можете удалять свои сообщения
Вы не можете голосовать в опросах
Вы не можете прикреплять файлы к сообщениям
Вы не можете скачивать файлы