Пищевая фабрика / Food Factory, Сезон 1 (19 серий из 26) [2012, научно-популярный, HDTV 1080i]

 
Автор Сообщение

TorrentFilm ®

Пол:

Стаж: 2 года

Сообщений: 7741



Награды: Нет

Торрент-статистика

Создавать темы 09-Фев-2015 00:00

[Цитировать]

Пищевая фабрика / Food Factory, Сезон 1 (19 серий из 26)
Год выпуска: 2012
Страна: Канада
Студия: A Cineflix (Food Factory) Inc.
Жанр: Научно-популярный
Продолжительность: 19 x ~ 00:21:50
Перевод: Профессиональный (одноголосый закадровый)
Описание: Новое поучительное и завораживающее шоу проводит нас за кулисы удивительных производственных линий, чтобы показать, как в действительности делается еда. Вам когда-нибудь было любопытно узнать, каким образом овощи для супа фирмы "Campbell" нарезаны столь идеально для каждой банки или как делаются ириски? Откройте секреты популярных канадских продуктов в новой увлекательной программе "Пищевая фабрика". За каждой упаковкой чипсов, за каждой банкой пива, плиткой шоколада или буханкой хлеба стоит гигантская производственная линия, благодаря которой все эти продукты становятся доступными массам. Каждая серия позволяет заглянуть в производственный цех и подробно рассмотреть процесс изготовления четырех канадских продуктов - от ингредиентов до используемых технологий. От макарон и песто до жевательной резинки и канадского виски - узнайте о чудесном процессе превращения исходного сырья во всеми любимые продукты.
Сэмпл: http://multi-up.com/1031681
Тип релиза: HDTV 1080i
Контейнер: TS
Видео: MPEG4 Video (H264) 1920x1080 25fps ~6500 Kbps
Аудио 1: Russian [AC3, 48000 Hz, 5.1, 384 kb/s]
Аудио 2: English [AC3, 48000 Hz, 5.1, 384 kb/s]

Содержание

01. Суп Уорхола / Warhol Soup - Консервированный суп фирмы 'Campbell', Жевательные конфеты 'Razzles', Канадский виски, Булочки-бриоши
02. Большое яблоко / The Big apple - Греческий пирог со шпинатом Спанакопита, Имбирное печенье, Тартуфо, Яблочный сок
03. Батончики - Гранола / The Original Granola Bar - Батончики-мюсли, Овощное ассорти для барбекю, Сыр с плесенью, Рисовые хлебцы
04. Макароны и мороженное / Pasta the Ice Cream - Рожки с мороженным в шоколаде, Содовая вода, Макаронные изделия, Жевательная резинка
05. Копченый лосось / Smoking salmon - Копченый лосось, Йогурт, Равиоли, Овощной салат
06. Сладкий, как сахар / Sweet as Sugar - Сахар, Яблочные слойки, Яйца, Мексиканские лепешки тортильи
07. Праздничный торт с карамелью / Celebrate With Caramel Cake - Итальянское вафельное печенье, Алкогольные коктейли, Жареные куриные крылышки, Карамельный торт
08. На скорую руку / Whipping It Up - Банановые батончики, Взбитые сливки, Леденцы на палочке, Крабовые палочки
09. Вкус Индии / A Taste of India - Сухарики, Десерт Гулаб джамун, Миндальное печенье, Тофу
10. Stirring It Up: Tomato Sauce & Stuffing
11. Ириски и кофе / From Toffee to Coffee
12. Паста из оливок / Pasta the Olives - Фаршированные оливки ''Манзанилья'', Итальянские пельмени Тортеллини, Багеттини, Пробиотический йогурт
13. Покровитель вареников/ Holy Pierogi - Чизкейк, Вареники, Мороженое, Джем
14. Клубничный торт и козий сыр покрытый клюквой / Strawberry Shortcake & Goat Cheese - Козий сыр в клюкве, Клубничое пироженое, Пшеничная мука, Маринованная селедка
15. Еда в полёте / Come Fly With Me - Бублики ''бейглы'', Авиционное питание, Чипсы из цельного зерна, Морковный торт
16. Вперед на всех парах / Full Steam Ahead
17. Going Crackers
18. Овощ №1 / Gumballs Galore - Картофель, Горячий шоколад, Жевательная резинка, Ребра барбекю
19. Вкус тропиков / Totally Tropical - Жареный арахис, Сливочный смузи из манго, Сыр Бокончини, Шоколадный кекс ''Брауни''
20. Mousse Hunting
21. Замороженная пицца / Like Momma Makes - Замороженная пицца, Экологически чистые грибы, Мягкое масло, Пироги со шпинатом
22. Hitting the Trail
23. Рыбалка / Gone Fishing - Радужная форель, Кешью, Нарезанные дольками яблоки, Канадский бекон
24. This Is Toast
25. Сливки / The Cream of the Crop - Экологически чистое молоко, Горох, Самса, Мини-эклеры
26. В теплице / In the Hot House - Помидоры, Маффины, Мятные конфеты, Итальянские клецки

MediaInfo

GeneralID : 6 (0x6)Complete name : G:\...\Пищевая фабрика HD\S01E01 Суп Уорхола (Консервированный суп фирмы 'Campbell', Жевательные конфеты 'Razzles', Канадский виски, Булочки-бриоши).tsFormat : MPEG-TSFile size : 1.17 GiBDuration : 21mn 49sOverall bit rate mode : VariableOverall bit rate : 7 703 Kbps
VideoID : 3200 (0xC80)Menu ID : 3203 (0xC83)Format : AVCFormat/Info : Advanced Video CodecFormat profile : High@L4.0Format settings, CABAC : YesFormat settings, ReFrames : 4 framesCodec ID : 27Duration : 21mn 50sBit rate : 6 547 KbpsWidth : 1 920 pixelsHeight : 1 080 pixelsDisplay aspect ratio : 16:9Frame rate : 25.000 fpsStandard : ComponentColor space : YUVChroma subsampling : 4:2:0Bit depth : 8 bitsScan type : InterlacedScan order : Top Field FirstBits/(Pixel*Frame) : 0.126Stream size : 1 022 MiB (85%)Color primaries : BT.709Transfer characteristics : BT.709Matrix coefficients : BT.709Color range : Limited
Audio #1ID : 3202 (0xC82)Menu ID : 3203 (0xC83)Format : AC-3Format/Info : Audio Coding 3Mode extension : CM (complete main)Format settings, Endianness : BigCodec ID : 6Duration : 21mn 49sBit rate mode : ConstantBit rate : 384 KbpsChannel(s) : 6 channelsChannel positions : Front: L C R, Side: L R, LFESampling rate : 48.0 KHzBit depth : 16 bitsCompression mode : LossyDelay relative to video : -4msStream size : 60.0 MiB (5%)
Audio #2ID : 3203 (0xC83)Menu ID : 3203 (0xC83)Format : AC-3Format/Info : Audio Coding 3Mode extension : CM (complete main)Format settings, Endianness : BigCodec ID : 6Duration : 21mn 49sBit rate mode : ConstantBit rate : 384 KbpsChannel(s) : 6 channelsChannel positions : Front: L C R, Side: L R, LFESampling rate : 48.0 KHzBit depth : 16 bitsCompression mode : LossyDelay relative to video : -4msStream size : 60.0 MiB (5%)

Скриншоты


Релиз группы:
[Профиль] [ЛС]
Показать сообщения:    

Текущее время: Сегодня 04:13

Часовой пояс: GMT



Вы не можете начинать темы
Вы не можете отвечать на сообщения
Вы не можете редактировать свои сообщения
Вы не можете удалять свои сообщения
Вы не можете голосовать в опросах
Вы не можете прикреплять файлы к сообщениям
Вы не можете скачивать файлы