Пишто уезжает / Pishto goes away (Соня Кендель / Sonya Kendel) [2012, анимационный фильм, WEBRip-AVC]

 
Автор Сообщение

TorrentFilm ®

Пол:

Стаж: 2 года

Сообщений: 7741



Награды: Нет

Торрент-статистика

Создавать темы 17-Дек-2014 02:30

[Цитировать]

Пишто уезжает / Pishto goes away
Страна: Россия
Жанр: анимационный фильм
Продолжительность: 00:08:32
Год выпуска: 2012
Режиссёр: Соня Кендель / Sonya Kendel
Описание: Как-то осенью кота по имени Пишто так достало всё вокруг, что он решил уехать навсегда...
Доп. информация: Приз Гильдии киноведов и кинокритиков
Приз за лучший студенческий фильм на фестивале анимационного кино в Суздале (2012)
1-ая премия в номинации «Лучший анимационный фильм» на фестивале дебютного кино "Святая Анна"
Качество: WEBRip-AVC
Формат: MP4
Видео: 1694 kbps, 1280х720 (16:9), 25.000 fps, AVC (High@L3.1)
Аудио: 192 kbps, 44.1 kHz, 2 channels, AAC (LC)
Субтитры: отсутствуют

Подробные технические данные

GeneralComplete name : Пишто уезжает (2012).mp4Format : MPEG-4Format profile : Base Media / Version 2Codec ID : mp42File size : 115 MiBDuration : 8mn 32sOverall bit rate mode : VariableOverall bit rate : 1 888 KbpsEncoded date : UTC 2014-05-31 17:03:17Tagged date : UTC 2014-05-31 17:03:17gsst : 0gstd : 512580gssd : B4A7DA364MH1403784687056440gshh : r15---sn-5go7ln7z.googlevideo.com
VideoID : 1Format : AVCFormat/Info : Advanced Video CodecFormat profile : High@L3.1Format settings, CABAC : YesFormat settings, ReFrames : 1 frameCodec ID : avc1Codec ID/Info : Advanced Video CodingDuration : 8mn 32sBit rate : 1 694 KbpsMaximum bit rate : 5 187 KbpsWidth : 1 280 pixelsHeight : 720 pixelsDisplay aspect ratio : 16:9Frame rate mode : ConstantFrame rate : 25.000 fpsColor space : YUVChroma subsampling : 4:2:0Bit depth : 8 bitsScan type : ProgressiveBits/(Pixel*Frame) : 0.074Stream size : 103 MiB (90%)Tagged date : UTC 2014-05-31 17:03:25
AudioID : 2Format : AACFormat/Info : Advanced Audio CodecFormat profile : LCCodec ID : 40Duration : 8mn 32sBit rate mode : VariableBit rate : 192 KbpsMaximum bit rate : 201 KbpsChannel(s) : 2 channelsChannel positions : Front: L RSampling rate : 44.1 KHzCompression mode : LossyStream size : 11.7 MiB (10%)Title : IsoMedia File Produced by Google, 5-11-2011Encoded date : UTC 2014-05-31 17:03:22Tagged date : UTC 2014-05-31 17:03:25

Скриншоты

[Профиль] [ЛС]
Показать сообщения:    

Текущее время: Сегодня 02:15

Часовой пояс: GMT



Вы не можете начинать темы
Вы не можете отвечать на сообщения
Вы не можете редактировать свои сообщения
Вы не можете удалять свои сообщения
Вы не можете голосовать в опросах
Вы не можете прикреплять файлы к сообщениям
Вы не можете скачивать файлы