Пише. Между небом и землей / Piche: entre ciel et terre (Сильвен Аршамбо / Sylvain Archambault) [2010, Канада, биографическая драма, DVB] Original (Fre) + Sub (rus)

 
Автор Сообщение

TorrentFilm ®

Пол:

Стаж: 2 года

Сообщений: 7741



Награды: Нет

Торрент-статистика

Создавать темы 26-Янв-2015 00:15

[Цитировать]

Пише. Между небом и землей
Piché: entre ciel et terre- Страна: Канада
Жанр: биографическая драма
Год выпуска: 2010
Продолжительность: 01:47:38
Перевод: Субтитры (перевод И.Рыбкиной, Éclair Group)
Cубтитры: русские
Оригинальная аудиодорожка: французский
Режиссер: Сильвен Аршамбо / Sylvain ArchambaultВ ролях: Мишель Коте / Michel Côté (Robert Piché - 41-48 ans), Максим Ле Флагэ / Maxime Le Flaguais (Robert Piché plus jeune), Лео Аргелло / Léo Arguello (Mr. Castaño), Гуши Бой / Gouchy Boy (Dez), Пьер Чавес / Pierre Chaves (Pedro Castagno), Венсан Леклерк / Vincent Leclerc (Peter Hill)
Описание: Фильм основан на реальных событиях. Канадский пилот Робер Пише 24 августа 2001 года спас жизнь 306 пассажирам, сумев посадить самолет, у которого из-за полной выработки топлива отказали все двигатели. Тем не менее, тяжелое прошлое не отпускает его, и даже став в одночасье героем, ему приходится бороться с алкогольной зависимостью…
Доп. информация: TV5MONDE DVB-S. Во время нефранцузской речи на экране дополнительно вшитые французские субтитры. В отличие от имеющегося на трекере SATRip с MVO в данном релизе перевод в виде русских субтитров.
Награды: приз "Золотой билет" на Jutra Awards 2011 + номинация на лучший сценарий; 2 номинации Genie Awards 2011 (лучший оператор, монтаж).

Качество видео: DVB
Формат видео: MKV
Видео: MPEG Video 2, 704x576@1024x576 (16:9), 25 fps, ~2545 kbps avg, 0.251 bit/pixel
Аудио: Французский (MPEG Audio 2, 2 ch, 48 kHz, ~192.00 kbps avg)
Формат субтитров: hardsub (неотключаемые)

MediaInfo

ОбщееУникальный идентификатор : 233465381119011989928069100771135764268 (0xAFA3CBFE326E6648BA8EC255E2E0B72C)Полное имя : E:\My Torrents 2\[apreder]Piche_entre_ciel_et_terre(2010)DVB.mkvФормат : MatroskaВерсия формата : Version 2Размер файла : 2,10 ГбайтПродолжительность : 1 ч. 47 м.Режим общего битрейта : ПеременныйОбщий поток : 2792 Кбит/секДата кодирования : UTC 2015-01-24 13:21:46Программа кодирования : mkvmerge v7.5.0 ('Glass Culture') 64bit built on Jan 4 2015 16:48:44Библиотека кодирования : libebml v1.3.1 + libmatroska v1.4.2
ВидеоИдентификатор : 1Формат : MPEG VideoВерсия формата : Version 2Профиль формата : Main@MainПараметр BVOP формата : ДаПараметр матрицы формата : ВыборочнаяПараметр GOP формата : M=3, N=15Format_Settings_PictureStructure : FrameИдентификатор кодека : V_MPEG2Идентификатор кодека/Информация : MPEG 1 or 2 VideoПродолжительность : 1 ч. 47 м.Вид битрейта : ПеременныйБитрейт : 2545 Кбит/секШирина : 704 пикселяВысота : 576 пикселейСоотношение сторон : 16:9Режим частоты кадров : ПостоянныйЧастота кадров : 25,000 кадров/секСтандарт вещания : PALЦветовое пространство : YUVСубдискретизация насыщенности : 4:2:0Битовая глубина : 8 битТип развёртки : ЧересстрочнаяПорядок развёртки : Верхнее поле первоеМетод сжатия : С потерямиБит/(Пиксели*Кадры) : 0.251Временной код первого кадра : 00:00:00:00Оригинал временного кода : Group of pictures headerРазмер потока : 1,91 Гбайт (91%)Default : ДаForced : НетGop_OpenClosed_FirstFrame : Closed
АудиоИдентификатор : 2Формат : MPEG AudioВерсия формата : Version 1Профиль формата : Layer 2Идентификатор кодека : A_MPEG/L2Идентификатор кодека/Подсказка : MP2Продолжительность : 1 ч. 47 м.Вид битрейта : ПостоянныйБитрейт : 192 Кбит/секКаналы : 2 каналаЧастота : 48,0 КГцМетод сжатия : С потерямиРазмер потока : 148 Мбайт (7%)Язык : FrenchDefault : ДаForced : Нет

Скриншот c названием фильма

Скриншоты


Резервные скриншоты


-[2'073]
[Профиль] [ЛС]

Создавать темы 06-Авг-2015 22:47 (спустя 6 месяцев 11 дней)

Топик был перенесен из форума Фильмы до 2014 года в форум Фильмы до 2012 года
sergej644
 

Создавать темы 12-Июн-2016 07:54 (спустя 1 год 4 месяца)

Топик был перенесен из форума Фильмы 2011 года в форум Фильмы 2010 года
Russian Mafia
 
Кто просматривает тему:

Показать сообщения:    

Текущее время: Сегодня 16:35

Часовой пояс: GMT



Вы не можете начинать темы
Вы не можете отвечать на сообщения
Вы не можете редактировать свои сообщения
Вы не можете удалять свои сообщения
Вы не можете голосовать в опросах
Вы не можете прикреплять файлы к сообщениям
Вы не можете скачивать файлы