Пиф-паф / Bang Bang (2014) BDRip 720p | P, L

 
Автор Сообщение

Russian Mafia ®

Пол:

Стаж: 1 год 8 месяцев

Сообщений: 4253



Награды: 10 (Подробнее)

Mega Seeder 2 (Количество: 1) Mega Seeder 3 (Количество: 1) Top Releaser 5 (Количество: 1)
Торрент-статистика

Создавать темы 11-Авг-2016 12:18

[Цитировать]

Пиф-пафBang Bang- Страна: Индия
Жанр: боевик, мелодрама, комедия
Год выпуска: 2014
Продолжительность: 02:33:08
Перевод: Профессиональный (многоголосый, закадровый), Любительский (многоголосый, закадровый)
Субтитры: русские (на песни и места без перевода).-Режиссер: Сиддхарт Ананд / Siddharth Anand-В ролях: Ритик Рошан (Rajveer Nanda), Катрина Кэйф (Harleen Sahani), Паван Малхотра (Zorawar Kalwa), Дэнни Дензонгпа (Omar Zafar), Джавед Джеффри (Hamid Gul), Джимми Шергилл (Colonel Viren Nanda), Викрам Гокхале (ISS Chief Narayanan), Канвалджит Сингх (Rajveer's Father), Дипти Навал (Rajveer's Mother), Камлеш Гилл (Dadi, Harleen's grandmother), Партх Акеркар (Robert), Pratik Dixit (Karan Saxena)-Описание: Случайная встреча скромной банковской служащей Харлин Сахни с обаятельным, но загадочным Раджвиром Нанда приводит к угробленным самолетам, погоням, перестрелкам, взрывам и к общему глобальному беспределу. Но хотя разворачивается трансконтинентальная погоня, Раджвир убеждает Харлин, что он хороший парень. Но действительно ли она может доверять ему, и стоит ли доверять, когда начинают летать пули?-
MPAA: PG-13 - Детям до 13 лет просмотр не желателен-Семпл-Качество: BDRip
Контейнер: MKV
Видео: AVC, 1280x544 (2.35:1), 5879 kbps, 24 fps, 0,352 bpp
Аудио №1: русский / AC3 / 2.0 / 48 kHz / 192 kbps / MVO ( SDI Media )
Аудио №2: русский / AC3 / 2.0 / 48 kHz / 192 kbps / MVO ( ICG , при поддержке GeneralFilm )
Навигация по главам: есть-

Media Info

Формат : Matroska
Версия формата : Version 2
Размер файла : 6,84 Гбайт
Продолжительность : 2 ч. 33 м.
Общий поток : 6390 Кбит/сек
Название фильма : = Пиф-паф / Bang Bang (2014) BDRip 720p by SC Kosmos =
Дата кодирования : UTC 2016-07-24 09:57:14
Программа кодирования : mkvmerge v5.8.0 ('No Sleep / Pillow') built on Sep 2 2012 15:37:04
Библиотека кодирования : libebml v1.2.3 + libmatroska v1.3.0
Attachment : Yes
Видео
Идентификатор : 1
Формат : AVC
Формат/Информация : Advanced Video Codec
Профиль формата : High@L4.1
Параметр CABAC формата : Да
Параметр ReFrames формата : 10 кадров
Идентификатор кодека : V_MPEG4/ISO/AVC
Продолжительность : 2 ч. 33 м.
Битрейт : 5879 Кбит/сек
Ширина : 1280 пикселей
Высота : 544 пикселя
Соотношение сторон : 2,35:1
Режим частоты кадров : Постоянный
Частота кадров : 24,000 кадра/сек
Цветовое пространство : YUV
Субдискретизация насыщенности : 4:2:0
Битовая глубина : 8 бит
Тип развёртки : Прогрессивная
Бит/(Пиксели*Кадры) : 0.352
Размер потока : 6,29 Гбайт (92%)
Заголовок : Пиф-паф / Bang Bang (2014) BDRip 720p by SC Kosmos
Библиотека кодирования : x264 core 146 r2538 121396c
Настройки программы : cabac=1 / ref=10 / deblock=1:-3:-3 / analyse=0x3:0x113 / me=umh / subme=11 / psy=1 / psy_rd=1.00:0.00 / mixed_ref=1 / me_range=32 / chroma_me=1 / trellis=2 / 8x8dct=1 / cqm=0 / deadzone=21,11 / fast_pskip=0 / chroma_qp_offset=-2 / threads=12 / lookahead_threads=3 / sliced_threads=0 / nr=0 / decimate=1 / interlaced=0 / bluray_compat=0 / constrained_intra=0 / bframes=10 / b_pyramid=2 / b_adapt=2 / b_bias=0 / direct=3 / weightb=1 / open_gop=0 / weightp=2 / keyint=240 / keyint_min=24 / scenecut=40 / intra_refresh=0 / rc_lookahead=50 / rc=crf / mbtree=0 / crf=18.0 / qcomp=0.60 / qpmin=0 / qpmax=69 / qpstep=4 / vbv_maxrate=62500 / vbv_bufsize=78125 / crf_max=0.0 / nal_hrd=none / filler=0 / ip_ratio=1.40 / pb_ratio=1.30 / aq=1:1.00
Язык : Hindi
Default : Да
Forced : Нет
Основные цвета : BT.709
Характеристики трансфера : BT.709
Коэффициенты матрицы : BT.709
Аудио #1
Идентификатор : 2
Формат : AC-3
Формат/Информация : Audio Coding 3
Расширение режима : CM (complete main)
Параметр Endianness формата : Big
Идентификатор кодека : A_AC3
Продолжительность : 2 ч. 33 м.
Вид битрейта : Постоянный
Битрейт : 192 Кбит/сек
Каналы : 2 канала
Расположение каналов : Front: L R
Частота : 48,0 КГц
Битовая глубина : 16 бит
Метод сжатия : С потерями
Размер потока : 210 Мбайт (3%)
Заголовок : MVO ( SDI Media )
Язык : Russian
Default : Да
Forced : Нет
Аудио #2
Идентификатор : 3
Формат : AC-3
Формат/Информация : Audio Coding 3
Расширение режима : CM (complete main)
Параметр Endianness формата : Big
Идентификатор кодека : A_AC3
Продолжительность : 2 ч. 33 м.
Вид битрейта : Постоянный
Битрейт : 192 Кбит/сек
Каналы : 2 канала
Расположение каналов : Front: L R
Частота : 48,0 КГц
Битовая глубина : 16 бит
Метод сжатия : С потерями
Размер потока : 210 Мбайт (3%)
Заголовок : MVO ( ICG , при поддержке GeneralFilm )
Язык : Russian
Default : Нет
Forced : Нет
Текст
Идентификатор : 4
Формат : UTF-8
Идентификатор кодека : S_TEXT/UTF8
Идентификатор кодека/Информация : UTF-8 Plain Text
Заголовок : на песни
Язык : Russian
Default : Да
Forced : Да
Меню
00:00:00.000 : en:00:00:00.000
00:09:15.833 : en:00:09:15.833
00:17:07.667 : en:00:17:07.667
00:19:39.125 : en:00:19:39.125
00:26:57.292 : en:00:26:57.292
00:35:04.417 : en:00:35:04.417
00:40:48.583 : en:00:40:48.583
00:50:10.458 : en:00:50:10.458
00:53:26.500 : en:00:53:26.500
01:03:41.958 : en:01:03:41.958
01:13:11.917 : en:01:13:11.917
01:18:12.708 : en:01:18:12.708
01:25:02.875 : en:01:25:02.875
01:32:29.625 : en:01:32:29.625
01:37:39.375 : en:01:37:39.375
01:48:45.917 : en:01:48:45.917
01:54:40.125 : en:01:54:40.125
01:59:55.958 : en:01:59:55.958
02:15:56.125 : en:02:15:56.125
02:29:09.417 : en:02:29:09.417
-

Скриншоты


-

О релизе

Исходник - немецкая лицензия. К моему большому сожалению оригинальную дорогу, по каким-то мне не понятным причинам, снёс с харда, поэтому она не попала в этот релиз. Приношу свои извинения любителям хинди.
Русские дороги брал с кинозала. За первую дорожку большое спасибо - MrsKhan (раздача) и василисса (Сведение звука). За вторую - AlexWhiteTV (раздача), Rummata (перевод) и Наталье Берсановой, Эльвире Гилязовой и Эльвине Фазулжановой (за материальную поддержку).
Обе дороги пришлось подгонять под этот релиз, немецкая лицензия не много отличалась от другой. В места без перевода были наложенны русские сабы. Я не "заслуженный мастер" по подгонки дорог, поэтому извиняйте.
Русские сабы были взяты тоже с релиза от AlexWhiteTV и подогнаны под тайминг немецких форсированных сабов.
[Профиль] [ЛС]
Кто просматривает тему:

Показать сообщения:    

Текущее время: Сегодня 21:00

Часовой пояс: GMT



Вы не можете начинать темы
Вы не можете отвечать на сообщения
Вы не можете редактировать свои сообщения
Вы не можете удалять свои сообщения
Вы не можете голосовать в опросах
Вы не можете прикреплять файлы к сообщениям
Вы не можете скачивать файлы