Питер Пэн / Peter Pan (1953) BDRip [720p]

 
Автор Сообщение

sergej644 ®

Пол:

Стаж: 4 года 11 месяцев

Сообщений: 6042

Откуда: Soviet Union



Награды: Нет

Торрент-статистика

Создавать темы 13-Янв-2015 23:12

[Цитировать]

-Питер Пэн / Peter Pan (1953) BDRip [720p]
« It will live in your heart forever! »
- Производство: США | Walt Disney Productions
Жанр: Мультфильм, Фэнтези, Приключения, Семейный, Музыка
Режиссер: Клайд Джероними, Уилфред Джексон, Хэмильтон Ласки
Продюсер: Уолт Дисней
Актеры: Бобби Дрисколл, Катрин Бомонт, Ганс Конрид, Билл Томпсон, Хэзер Эйнджел, Пол Коллинз, Томми Ласки, Кэнди Кандидо, Том Конуэй, Тони Бутала, Кэрол Кумбс, Роберт Эллис
Описание фильма: Уолт Дисней зовет нас с собой в волшебную страну Неверленд, где живет удивительный мальчик, который умеет летать и отказывается взрослеть. Это веселый выдумщик, храбрец и проказник Питер Пэн! Однажды в поисках собственной тени Питер попадает в Лондон нашего мира и становится другом маленькой Венди и ее братьев Майкла и Джона, и, конечно же, он берет своих ночных друзей с собой в Неверленд, навстречу потрясающим приключениям. Героям предстоит встретиться с феей Тинкербелл и дружной ватагой Питера Пэна, спасти индейскую принцессу Тигровую Лилию из лап пиратов и сразиться с их демоническим главарем капитаном Крюком!

Возраст: 0+ Для любой зрительской аудитории
Рейтинг MPAA: G Нет возрастных ограничений
Продолжительность: 01:16:46
Качество видео: BDRip [720p]
Перевод: Профессиональный дублированный, профессиональный многоголосый, профессиональный двухголосый, авторский
Вид субтитров: Вшитые отключаемые
Язык субтитров: Русский (Forced, Full), английский
Видео: MPEG-4 AVC/H.264, 5000 Kbps, 960 x 720
Аудио 1: Русский AC3 5.1, 640 Kbps, 48.0 KHz (Полное дублирование) Blu-ray CEE
Аудио 2: Русский AC3 5.1, 384 Kbps, 48.0 KHz (Многоголосый закадровый) DVD-Магия
Аудио 3: Русский AC3 5.1, 384 Kbps, 48.0 KHz (Многоголосый закадровый) Кравец
Аудио 4: Русский AC3 5.1, 384 Kbps, 48.0 KHz (Двухголосый закадровый) П. Гланц и Т. Казакова
Аудио 5: Русский AC3 5.1, 384 Kbps, 48.0 KHz (Одноголосый закадровый) А. Михалёв
Аудио 6: Русский AC3 2.0, 192 Kbps, 48.0 KHz (Одноголосый закадровый) В. Горчаков
Аудио 7: Английский DTS 5.1, 1509 Kbps, 48.0 KHz (Оригинал)

Blu-ray

MediaInfo

Общее
Полное имя : Питер Пэн.mkv
Формат : Matroska
Версия формата : Version 1
Размер файла : 4,77 Гбайт
Продолжительность : 1 ч. 17 м.
Общий поток : 8828 Кбит/сек
Дата кодирования : UTC 2015-01-08 17:21:24
Программа кодирования : mkvmerge v2.4.1 ('Use Me') built on Dec 5 2008 18:30:05
Библиотека кодирования : libebml v0.7.7 + libmatroska v0.8.1
Видео
Идентификатор : 1
Формат : AVC
Формат/Информация : Advanced Video Codec
Профиль формата : [url=mailto:High@L4.1]High@L4.1[/url]
Параметр CABAC формата : Да
Параметр ReFrames формата : 10 кадров
Идентификатор кодека : V_MPEG4/ISO/AVC
Продолжительность : 1 ч. 17 м.
Битрейт : 5000 Кбит/сек
Ширина : 960 пикселей
Высота : 720 пикселей
Соотношение сторон : 4:3
Режим частоты кадров : Постоянный
Частота кадров : 23,976 кадра/сек
Цветовое пространство : YUV
Субдискретизация насыщенности : 4:2:0
Битовая глубина : 8 бит
Тип развёртки : Прогрессивная
Бит/(Пиксели*Кадры) : 0.302
Размер потока : 2,58 Гбайт (54%)
Заголовок : Питер Пэн (1953)
Библиотека кодирования : x264 core 142 r2431 ac76440
Настройки программы : cabac=1 / ref=10 / deblock=1:-3:-3 / analyse=0x3:0x133 / me=umh / subme=10 / psy=1 / psy_rd=1.00:0.10 / mixed_ref=1 / me_range=48 / chroma_me=1 / trellis=2 / 8x8dct=1 / cqm=0 / deadzone=21,11 / fast_pskip=0 / chroma_qp_offset=-3 / threads=6 / lookahead_threads=1 / sliced_threads=0 / nr=0 / decimate=1 / interlaced=0 / bluray_compat=0 / constrained_intra=0 / bframes=5 / b_pyramid=2 / b_adapt=2 / b_bias=0 / direct=3 / weightb=1 / open_gop=0 / weightp=2 / keyint=240 / keyint_min=22 / scenecut=40 / intra_refresh=0 / rc_lookahead=40 / rc=2pass / mbtree=1 / bitrate=5000 / ratetol=1.0 / qcomp=0.60 / qpmin=10 / qpmax=51 / qpstep=4 / cplxblur=20.0 / qblur=0.5 / ip_ratio=1.40 / aq=1:1.00
Язык : English
Аудио #1
Идентификатор : 2
Формат : AC-3
Формат/Информация : Audio Coding 3
Расширение режима : CM (complete main)
Параметр Endianness формата : Big
Идентификатор кодека : A_AC3
Продолжительность : 1 ч. 17 м.
Вид битрейта : Постоянный
Битрейт : 640 Кбит/сек
Каналы : 6 каналов
Расположение каналов : Front: L C R, Side: L R, LFE
Частота : 48,0 КГц
Битовая глубина : 16 бит
Метод сжатия : С потерями
Размер потока : 354 Мбайт (7%)
Заголовок : AC3 (Дублированный) Blu-ray CEE
Язык : Russian
Аудио #2
Идентификатор : 3
Формат : AC-3
Формат/Информация : Audio Coding 3
Расширение режима : CM (complete main)
Параметр Endianness формата : Big
Идентификатор кодека : A_AC3
Продолжительность : 1 ч. 17 м.
Вид битрейта : Постоянный
Битрейт : 384 Кбит/сек
Каналы : 6 каналов
Расположение каналов : Front: L C R, Side: L R, LFE
Частота : 48,0 КГц
Битовая глубина : 16 бит
Метод сжатия : С потерями
Размер потока : 212 Мбайт (4%)
Заголовок : AC3 (Многоголосый) DVD-Магия
Язык : Russian
Аудио #3
Идентификатор : 4
Формат : AC-3
Формат/Информация : Audio Coding 3
Расширение режима : CM (complete main)
Параметр Endianness формата : Big
Идентификатор кодека : A_AC3
Продолжительность : 1 ч. 17 м.
Вид битрейта : Постоянный
Битрейт : 384 Кбит/сек
Каналы : 6 каналов
Расположение каналов : Front: L C R, Side: L R, LFE
Частота : 48,0 КГц
Битовая глубина : 16 бит
Метод сжатия : С потерями
Размер потока : 212 Мбайт (4%)
Заголовок : AC3 (Многоголосый) Кравец
Язык : Russian
Аудио #4
Идентификатор : 5
Формат : AC-3
Формат/Информация : Audio Coding 3
Расширение режима : CM (complete main)
Параметр Endianness формата : Big
Идентификатор кодека : A_AC3
Продолжительность : 1 ч. 17 м.
Вид битрейта : Постоянный
Битрейт : 384 Кбит/сек
Каналы : 6 каналов
Расположение каналов : Front: L C R, Side: L R, LFE
Частота : 48,0 КГц
Битовая глубина : 16 бит
Метод сжатия : С потерями
Размер потока : 212 Мбайт (4%)
Заголовок : AC3 (Двухголосый) П. Гланц и Т. Казакова
Язык : Russian
Аудио #5
Идентификатор : 6
Формат : AC-3
Формат/Информация : Audio Coding 3
Расширение режима : CM (complete main)
Параметр Endianness формата : Big
Идентификатор кодека : A_AC3
Продолжительность : 1 ч. 17 м.
Вид битрейта : Постоянный
Битрейт : 384 Кбит/сек
Каналы : 6 каналов
Расположение каналов : Front: L C R, Side: L R, LFE
Частота : 48,0 КГц
Битовая глубина : 16 бит
Метод сжатия : С потерями
Размер потока : 212 Мбайт (4%)
Заголовок : AC3 (Одноголосый) А. Михалёв
Язык : Russian
Аудио #6
Идентификатор : 7
Формат : AC-3
Формат/Информация : Audio Coding 3
Расширение режима : CM (complete main)
Параметр Endianness формата : Big
Идентификатор кодека : A_AC3
Продолжительность : 1 ч. 17 м.
Вид битрейта : Постоянный
Битрейт : 192 Кбит/сек
Каналы : 2 канала
Расположение каналов : Front: L R
Частота : 48,0 КГц
Битовая глубина : 16 бит
Метод сжатия : С потерями
Размер потока : 106 Мбайт (2%)
Заголовок : AC3 (Одноголосый) В. Горчаков
Язык : Russian
Аудио #7
Идентификатор : 8
Формат : DTS
Формат/Информация : Digital Theater Systems
Режим : 16
Параметр Endianness формата : Big
Идентификатор кодека : A_DTS
Продолжительность : 1 ч. 17 м.
Вид битрейта : Постоянный
Битрейт : 1509 Кбит/сек
Каналы : 6 каналов
Расположение каналов : Front: L C R, Side: L R, LFE
Частота : 48,0 КГц
Битовая глубина : 24 бит
Метод сжатия : С потерями
Размер потока : 835 Мбайт (17%)
Заголовок : DTS (Оригинал)
Язык : English
Текст #1
Идентификатор : 9
Формат : UTF-8
Идентификатор кодека : S_TEXT/UTF8
Идентификатор кодека/Информация : UTF-8 Plain Text
Заголовок : Русские (Форсированные)
Язык : Russian
Текст #2
Идентификатор : 10
Формат : UTF-8
Идентификатор кодека : S_TEXT/UTF8
Идентификатор кодека/Информация : UTF-8 Plain Text
Заголовок : Русские
Язык : Russian
Текст #3
Идентификатор : 11
Формат : UTF-8
Идентификатор кодека : S_TEXT/UTF8
Идентификатор кодека/Информация : UTF-8 Plain Text
Заголовок : Английские
Язык : English
Скриншоты:
Время раздачи: С 9:00 до 21:00
[Профиль] [ЛС]
Кто просматривает тему:

Форум Тема Автор Размер
Russian music (other genres) (Шансон) Светлана Питерская - Дискография (8 альбомов) (2001-2011), MP3, 320 kbps Russian Mafia 1.34 GB
Документальные HD BBC. Йеллоустоун: Борьба за жизнь / Yellowstone: Battle For Life (Питер Ферт /Peter Firth)[2009,Документальный,BDRip 1080i] | P1 sergej644 17.39 GB
Discovery Discovery: Юпитер: близкий контакт / Jupiter: Close Encounter (Alix MacDonald) [2016 г., Документальный, научно-популярный, космос, HDTVRip 720p] skorpionN 985 MB
Зарубежные Xоббuт: Бuтва пяти воuнcтв в 3Д / The Ноbbіt: The Вattle of the Fіvе Аrmіes 3D (Питер Джексон / Pete) [2014, Фэнтези, Приключения, BDrip, 1080p] OverUnder / Вертикальная стереопара TorrentFilm 16.75 GB
Зарубежные Xоббuт: Пycтошь Cмayга(Расширенная версия) в 3Д / The Ноbbіt: The Dеsоlatіon of Smаug(Extended Cut) 3D (Питер Джексон / Peter Jackson) [2013, Фэнтези, Приключения, BDrip, 1080p] O... TorrentFilm 24.94 GB
Зарубежные Xоббит: Пyстошь Смaуга в 3Д / The Нobbit: The Desоlation of Smаug 3D [Расширенная версия / Extended Edition] (Питер Джексон / Peter Jackson) [2013, Фэнтези, Приключения, BDrip-AVC] Half OverUnder... TorrentFilm 13.13 GB
Зарубежные сериалы Агент Картер / Agent Carter (Сезон 1-2, Серия 1-18 из 18) (Луис Д'Эспозито, Питер Лето) [2015-2016 , Фантастика, боевик, приключения, криминал, драма , WEB-DLRip-AVC 1080p] [MVO] [LostFilm ,... Враг Нароода 32.66 GB
Боевики, детективы, триллеры Андрей Деменков - Питерские палачи (2016) FB2, PDF, RTF достали все 5 MB
Показать сообщения:    

Текущее время: Сегодня 10:33

Часовой пояс: GMT



Вы не можете начинать темы
Вы не можете отвечать на сообщения
Вы не можете редактировать свои сообщения
Вы не можете удалять свои сообщения
Вы не можете голосовать в опросах
Вы не можете прикреплять файлы к сообщениям
Вы не можете скачивать файлы