Питер. Лето. Любовь (Андрей Хвостов) [2014, Россия, Великобритания, драма, мелодрама, WEB-DLRip]

 
Автор Сообщение

sergej644 ®

Пол:

Стаж: 4 года 11 месяцев

Сообщений: 6037

Откуда: Soviet Union



Награды: Нет

Торрент-статистика

Создавать темы 28-Июл-2014 11:50

[Цитировать]

--Питер. Лето. Любовь
Питер. Лето. Любовь«Белые ночи. Грязные танцы»- Страна: Россия, Великобритания
Жанр: драма, мелодрама
Год выпуска: 2014
Продолжительность: 01:23:05-Перевод: Оригинальный (русский) + Профессиональный (многоголосый, закадровый) на анг. речь
Субтитры: нет
Режиссер: Андрей Хвостов
В ролях: Терри Суини, Надежда Толубеева, Константин Малышев, Леонид Мозговой, Джонатан Бенда, Катрин МакДонаф, Алессандра Джунтини, Николай Куглянт, Екатерина Тарасова, Елена Симонова-Описание: Двадцатипятилетний британец Эллиот, бросивший преподавание в школе танцев Оксфорда, решает кардинально изменить свою жизнь. Он отправляется в Санкт-Петербург, где живет его сводный брат Федор, с которым он никогда не виделся.
В Питере Эллиот начинает обучать танцам девушку Федора Аню, которая собирается поступать в Театральную академию. У Эллиота есть неделя, чтобы научить танцам подругу брата и разобраться с собственными чувствами к ней.- -Качество: WEB-DLRip | WEB-DL 720p | sample
Контейнер: AVI
Видео: XviD, 720x320 (2.25:1), 2051 kbps, 25 fps, 0,356 bpp
Аудио: AC3 / 5.1 / 48 kHz / 448 kbps / 16 bit-

Скриншоты

Media Info

General
Complete name : E:\my_rip\Piter.leto.love.2014.WEBDLRip.by.Дядя_Лёша.avi
Format : AVI
Format/Info : Audio Video Interleave
File size : 1.46 GiB
Duration : 1h 23mn
Overall bit rate : 2 509 Kbps
Writing application : VirtualDubMod 1.5.10.3 | www.virtualdub-fr.org || (build 2550/release)
Writing library : VirtualDubMod build 2550/release
Video
ID : 0
Format : MPEG-4 Visual
Format profile : Advanced Simple@L5
Format settings, BVOP : 1
Format settings, QPel : No
Format settings, GMC : No warppoints
Format settings, Matrix : Custom
Codec ID : XVID
Codec ID/Hint : XviD
Duration : 1h 23mn
Bit rate : 2 052 Kbps
Width : 720 pixels
Height : 320 pixels
Display aspect ratio : 2.25:1
Frame rate : 25.000 fps
Color space : YUV
Chroma subsampling : 4:2:0
Bit depth : 8 bits
Scan type : Progressive
Compression mode : Lossy
Bits/(Pixel*Frame) : 0.356
Stream size : 1.19 GiB (82%)
Writing library : XviD 65
Audio
ID : 1
Format : AC-3
Format/Info : Audio Coding 3
Mode extension : CM (complete main)
Codec ID : 2000
Duration : 1h 23mn
Bit rate mode : Constant
Bit rate : 448 Kbps
Channel(s) : 6 channels
Channel positions : Front: L C R, Side: L R, LFE
Sampling rate : 48.0 KHz
Bit depth : 16 bits
Compression mode : Lossy
Stream size : 266 MiB (18%)
Alignment : Split accross interleaves
Interleave, duration : 40 ms (1.00 video frame)
Interleave, preload duration : 500 ms
[Профиль] [ЛС]
Кто просматривает тему:

Форум Тема Автор Размер
Russian music (other genres) (Шансон) Светлана Питерская - Дискография (8 альбомов) (2001-2011), MP3, 320 kbps Russian Mafia 1.34 GB
Документальные HD BBC. Йеллоустоун: Борьба за жизнь / Yellowstone: Battle For Life (Питер Ферт /Peter Firth)[2009,Документальный,BDRip 1080i] | P1 sergej644 17.39 GB
Discovery Discovery: Юпитер: близкий контакт / Jupiter: Close Encounter (Alix MacDonald) [2016 г., Документальный, научно-популярный, космос, HDTVRip 720p] skorpionN 985 MB
Зарубежные Xоббuт: Бuтва пяти воuнcтв в 3Д / The Ноbbіt: The Вattle of the Fіvе Аrmіes 3D (Питер Джексон / Pete) [2014, Фэнтези, Приключения, BDrip, 1080p] OverUnder / Вертикальная стереопара TorrentFilm 16.75 GB
Зарубежные Xоббuт: Пycтошь Cмayга(Расширенная версия) в 3Д / The Ноbbіt: The Dеsоlatіon of Smаug(Extended Cut) 3D (Питер Джексон / Peter Jackson) [2013, Фэнтези, Приключения, BDrip, 1080p] O... TorrentFilm 24.94 GB
Зарубежные Xоббит: Пyстошь Смaуга в 3Д / The Нobbit: The Desоlation of Smаug 3D [Расширенная версия / Extended Edition] (Питер Джексон / Peter Jackson) [2013, Фэнтези, Приключения, BDrip-AVC] Half OverUnder... TorrentFilm 13.13 GB
Зарубежные сериалы Агент Картер / Agent Carter (Сезон 1-2, Серия 1-18 из 18) (Луис Д'Эспозито, Питер Лето) [2015-2016 , Фантастика, боевик, приключения, криминал, драма , WEB-DLRip-AVC 1080p] [MVO] [LostFilm ,... Враг Нароода 32.66 GB
Боевики, детективы, триллеры Андрей Деменков - Питерские палачи (2016) FB2, PDF, RTF достали все 5 MB
Показать сообщения:    

Текущее время: Сегодня 17:59

Часовой пояс: GMT



Вы не можете начинать темы
Вы не можете отвечать на сообщения
Вы не можете редактировать свои сообщения
Вы не можете удалять свои сообщения
Вы не можете голосовать в опросах
Вы не можете прикреплять файлы к сообщениям
Вы не можете скачивать файлы