Письмо милосердия / The Grace Card (Дэвид Эванс / David Evans) [2010, США, Драма, DVDRip] MVO (ТВ3) + DVO (студия Elrom) + Original Eng

 
Автор Сообщение

TorrentFilm ®

Пол:

Стаж: 2 года

Сообщений: 7741



Награды: Нет

Торрент-статистика

Создавать темы 18-Мар-2016 00:08

[Цитировать]

Письмо милосердия / The Grace Card
Страна: США
Жанр: Драма
Год выпуска: 2010
Продолжительность: 01:41:30
Перевод: Профессиональный (многоголосый закадровый) ТВ3
Перевод 2: Профессиональный (двухголосый закадровый) студия Elrom
Cубтитры: нет
Оригинальная аудиодорожка: английский
Режиссер: Дэвид Эванс / David Evans
В ролях: Майкл Джойнер / Michael Joiner, Джой Пармер Мур / Joy Parmer Moore, Луис Госсет мл. / Louis Gossett Jr., Киана МакДэниэл / Kiana McDaniel, Синди Ходж / Cindy Hodge, Майкл Хиггенботтом / Mike Higgenbottom
Описание: Чтобы разрушить жизнь достаточно мгновения, а чтобы всё восстановить может потребоваться целая вечность. 17 лет назад Мак МакДональд потерял сына в результате несчастного случая. Его жизнь остановилась и чтобы справиться с болью он становится полицейским. Но горечь и злоба на весь мир продолжают разъедать его самого, его семью и отношения с окружающими людьми. Неожиданно для Мака его напарником становится Сэм Райт, восходящая звезда полицейского участка, служащий по совместительству пастором в недавно основанной поместной церкви. Всё бы ничего, но Сэм черный, да еще и верующий. Сам Сэм очень тяжело переносит расовую дискриминацию, но мог ли он подумать что это станет для него таким испытанием. Ему выпала возможность познать истинную суть благодати, потому что никогда не стоит недооценивать силу исцеляющей Божьей любви. Когда весь мир делает ставку на расистскую карту, у тебя есть шанс сделать ход благодатью.
Сэмпл: http://multi-up.com/1093454
Качество видео: [url=viewtopic.php?t=4010448]DVD[/url]Rip
Формат видео: AVI
Видео: MPEG4, XviD, 720x400 (16:9), 23.976 fps, 2 233 Kbps (0.323 bit/pixel)
Аудио: AC-3, 48.0 KHz, 2 ch, 192 Kbps, CBR - ТВ3
Аудио 2: AC-3, 48.0 KHz, 2 ch, 192 Kbps, CBR - Elrom
Аудио 3: AC-3, 48.0 KHz, 6 ch, 448 Kbps, CBR - английский

MediaInfo

Общее
Полное имя : N:\Письмо милосердия.avi
Формат : AVI
Формат/Информация : Audio Video Interleave
Профиль формата : OpenDML
Размер файла : 2,19 Гбайт
Продолжительность : 1 ч. 41 м.
Общий поток : 3089 Кбит/сек
Название фильма : Письмо милосердия / The Grace Card (2010)
Программа кодирования : VirtualDubMod 1.5.10.2 (build 2540/release)
Библиотека кодирования : VirtualDubMod build 2540/release
Авторское право : miha2154
Видео
Идентификатор : 0
Формат : MPEG-4 Visual
Профиль формата : Advanced Simple@L5
Параметр BVOP формата : 1
Параметр QPel формата : Нет
Параметр GMC формата : Без точки перехода
Параметр матрицы формата : Выборочная
Идентификатор кодека : XVID
Идентификатор кодека/Подсказка : XviD
Продолжительность : 1 ч. 41 м.
Битрейт : 2233 Кбит/сек
Ширина : 720 пикселей
Высота : 400 пикселей
Соотношение сторон : 16:9
Частота кадров : 23,976 (24000/1001) кадра/сек
Цветовое пространство : YUV
Субдискретизация насыщенности : 4:2:0
Битовая глубина : 8 бит
Тип развёртки : Прогрессивная
Метод сжатия : С потерями
Бит/(Пиксели*Кадры) : 0.323
Размер потока : 1,58 Гбайт (72%)
Библиотека кодирования : XviD 65
Аудио #1
Идентификатор : 1
Формат : AC-3
Формат/Информация : Audio Coding 3
Расширение режима : CM (complete main)
Параметр Endianness формата : Big
Идентификатор кодека : 2000
Продолжительность : 1 ч. 41 м.
Вид битрейта : Постоянный
Битрейт : 192 Кбит/сек
Каналы : 2 канала
Расположение каналов : Front: L R
Частота : 48,0 КГц
Частота кадров : 31,250 кадров/сек (1536 spf)
Метод сжатия : С потерями
Размер потока : 140 Мбайт (6%)
Выравнивание : Разделение по промежуткам
Продолжительность промежутка : 42 мс. (1,00 видеокадр)
Время предзагрузки промежутка : 500 мс.
Заголовок : Профессиональный (многоголосый закадровый) ТВ3
Аудио #2
Идентификатор : 2
Формат : AC-3
Формат/Информация : Audio Coding 3
Расширение режима : CM (complete main)
Параметр Endianness формата : Big
Идентификатор кодека : 2000
Продолжительность : 1 ч. 41 м.
Вид битрейта : Постоянный
Битрейт : 192 Кбит/сек
Каналы : 2 канала
Расположение каналов : Front: L R
Частота : 48,0 КГц
Частота кадров : 31,250 кадров/сек (1536 spf)
Метод сжатия : С потерями
Задержка видео : 32 мс.
Размер потока : 140 Мбайт (6%)
Выравнивание : Разделение по промежуткам
Продолжительность промежутка : 42 мс. (1,00 видеокадр)
Время предзагрузки промежутка : 500 мс.
Заголовок : Профессиональный (двухголосый, закадровый) студия Elrom
Аудио #3
Идентификатор : 3
Формат : AC-3
Формат/Информация : Audio Coding 3
Расширение режима : CM (complete main)
Параметр Endianness формата : Big
Идентификатор кодека : 2000
Продолжительность : 1 ч. 41 м.
Вид битрейта : Постоянный
Битрейт : 448 Кбит/сек
Каналы : 6 каналов
Расположение каналов : Front: L C R, Side: L R, LFE
Частота : 48,0 КГц
Частота кадров : 31,250 кадров/сек (1536 spf)
Метод сжатия : С потерями
Размер потока : 326 Мбайт (15%)
Выравнивание : Разделение по промежуткам
Продолжительность промежутка : 42 мс. (1,00 видеокадр)
Время предзагрузки промежутка : 500 мс.
Заголовок : Английский

Скриншоты


[Профиль] [ЛС]

Создавать темы 12-Июн-2016 07:53 (спустя 2 месяца 25 дней)

Топик был перенесен из форума Фильмы 2011 года в форум Фильмы 2010 года
Russian Mafia
 
Кто просматривает тему:

Форум Тема Автор Размер
Pop (Pop) Алсу - Письма, пришедшие с войны (2015) MP3 BOSS 120 MB
Приключения, Квесты, Логические Бессмертная любовь: Письмо из прошлого / Immortal Love: Letter From The Past CE (2015) РС достали все 1.01 GB
Отечественные мультфильмы Как было написано первое письмо (Анатолий Кирик) [1984 г., мультфильм, DVB] TorrentFilm 268 MB
Отечественные мультфильмы Ненаписанное письмо (Евгений Сивоконь) [1985, рисованный мультфильм, TVRip] TorrentFilm 146 MB
Фильмы (HD Rips | 720p, 1080p) Неотправленное письмо (Михаил Калатозов) [1959, СССР, драма, BDRip 1080p] TorrentFilm 12 GB
Фильмы (HD Rips | 720p, 1080p) Неотправленное письмо (Михаил Калатозов) [1959, СССР, драма, Blu-ray disc 1080p] Sub Eng + Original Rus TorrentFilm 26.59 GB
Фильмы (HD Rips | 720p, 1080p) Неотправленное письмо (Михаил Калатозов) [1959, СССР, драма, мелодрама, BDRip 720p] TorrentFilm 7.37 GB
Отечественные cериалы Письма из прошлого [01-04 из 04] (2016) SATRip достали все 2.15 GB
Показать сообщения:    

Текущее время: Сегодня 14:44

Часовой пояс: GMT



Вы не можете начинать темы
Вы не можете отвечать на сообщения
Вы не можете редактировать свои сообщения
Вы не можете удалять свои сообщения
Вы не можете голосовать в опросах
Вы не можете прикреплять файлы к сообщениям
Вы не можете скачивать файлы