Писари Древнего Египта / Ancient Egyptian Scribe (Бернар Жорж) [2013 г., Документальный, история, египтология, SATRip]

 
Автор Сообщение

skorpionN ®

Пол:

Стаж: 1 год 8 месяцев

Сообщений: 584



Награды: 4 (Подробнее)

Top Releaser 2 (Количество: 1) Mega Seeder 3 (Количество: 1) Mega Seeder 2 (Количество: 1)
Торрент-статистика

Создавать темы 06-Апр-2015 11:07

[Цитировать]

Писари Древнего Египта / Ancient Egyptian Scribe
Год выпуска: 2013
Страна: Франция, Arte G.E.I.E
Жанр: Документальный, история, египтология
Продолжительность: 00:52:07
Перевод: Профессиональный (одноголосый) - компания Видеофильм ТВ
Режиссер: Бернар Жорж
Описание: Почти 5 тысяч лет назад, на заре истории, в Египте на берега Нила зародилась удивительная цивилизация. Руины храмов и гробниц, которые мы продолжаем открывать до сих пор вызывают восхищение и бесчисленные вопросы. Поразительные памятники искусства, хранящиеся в музеях, показывают какого высочайшего уровня тысячи лет назад достигла эта цивилизация в создании прекрасного. За всеми этими потрясающими творениями стоит некая фигура - человек, который концом заостренного папируса или кистью дарил жизнь египетскому искусству.
Качество: SATRip
Формат: AVI
Видео кодек: XviD
Аудио кодек: AC3
Видео: 720x400 25fps ~1950
Аудио: AC3 2ch, 48kHz, 192 kbps

Скриншоты


MediaInfo:

Format : AVI
Format/Info : Audio Video Interleave
File size : 800 MiB
Duration : 52mn 7s
Overall bit rate : 2 147 Kbps
Writing application : TMPGEnc Video Mastering Works 5 Version. 5.0.6.38
Writing library : TMPGEnc Video Mastering Works 5 Version. 5.0.6.38
Video
ID : 0
Format : MPEG-4 Visual
Format profile : Advanced Simple@L5
Format settings, BVOP : 2
Format settings, QPel : No
Format settings, GMC : No warppoints
Format settings, Matrix : Default (H.263)
Muxing mode : Packed bitstream
Codec ID : XVID
Codec ID/Hint : XviD
Duration : 52mn 7s
Bit rate : 1 948 Kbps
Width : 720 pixels
Height : 400 pixels
Display aspect ratio : 16:9
Frame rate : 25.000 fps
Color space : YUV
Chroma subsampling : 4:2:0
Bit depth : 8 bits
Scan type : Progressive
Compression mode : Lossy
Bits/(Pixel*Frame) : 0.270
Stream size : 726 MiB (91%)
Writing library : XviD 73
Audio
ID : 1
Format : AC-3
Format/Info : Audio Coding 3
Mode extension : CM (complete main)
Format settings, Endianness : Big
Codec ID : 2000
Duration : 52mn 7s
Bit rate mode : Constant
Bit rate : 192 Kbps
Channel(s) : 2 channels
Channel positions : Front: L R
Sampling rate : 48.0 KHz
Bit depth : 16 bits
Compression mode : Lossy
Stream size : 71.6 MiB (9%)
Alignment : Aligned on interleaves
Interleave, duration : 480 ms (12.00 video frames)


Последний раз редактировалось: skorpionN (2015-04-06 18:24), всего редактировалось 2 раз(а)
[Профиль] [ЛС]

KiruhaDelMar

Стаж: 1 год 8 месяцев

Сообщений: 246



Награды: Нет

Торрент-статистика

Создавать темы 06-Апр-2015 11:28 (спустя 20 минут)

[Цитировать]

Пора звонить провайдеру и отрубать канал история
[Профиль] [ЛС]

skorpionN ®

Пол:

Стаж: 1 год 8 месяцев

Сообщений: 584



Награды: 4 (Подробнее)

Top Releaser 2 (Количество: 1) Mega Seeder 3 (Количество: 1) Mega Seeder 1 (Количество: 1)
Торрент-статистика

Создавать темы 06-Апр-2015 11:30 (спустя 2 минуты)

[Цитировать]

А какой надо врубить? Давай наводку
[Профиль] [ЛС]

KiruhaDelMar

Стаж: 1 год 8 месяцев

Сообщений: 246



Награды: Нет

Торрент-статистика

Создавать темы 06-Апр-2015 12:05 (спустя 34 минуты)

[Цитировать]

Discovery Science
Discovery World
Da Vinci Learning
Техно 24
Наука 2.0
Viasat Explorer
Моя Планета
galaxy-tv
24 ДОК
ID Xtra
TLC
bu
[Профиль] [ЛС]

skorpionN ®

Пол:

Стаж: 1 год 8 месяцев

Сообщений: 584



Награды: 4 (Подробнее)

Mega Seeder 1 (Количество: 1) Top Releaser 2 (Количество: 1) Mega Seeder 3 (Количество: 1)
Торрент-статистика

Создавать темы 06-Апр-2015 13:10 (спустя 1 час 4 минуты)

[Цитировать]

А что там на ID Xtra? Не заглядывал я туда
[Профиль] [ЛС]

KiruhaDelMar

Стаж: 1 год 8 месяцев

Сообщений: 246



Награды: Нет

Торрент-статистика

Создавать темы 06-Апр-2015 13:23 (спустя 13 минут)

[Цитировать]

бабский канал. тебе понравится ap
[Профиль] [ЛС]

skorpionN ®

Пол:

Стаж: 1 год 8 месяцев

Сообщений: 584



Награды: 4 (Подробнее)

Mega Seeder 2 (Количество: 1) Mega Seeder 1 (Количество: 1) Top Releaser 2 (Количество: 1)
Торрент-статистика

Создавать темы 06-Апр-2015 14:16 (спустя 53 минуты)

[Цитировать]

KiruhaDelMar, тото я гляжу не складывается у нас. А ты по бабам, по бабам... bt
[Профиль] [ЛС]

KiruhaDelMar

Стаж: 1 год 8 месяцев

Сообщений: 246



Награды: Нет

Торрент-статистика

Создавать темы 06-Апр-2015 14:40 (спустя 24 минуты)

[Цитировать]

Шо у нас не складывается? bj не пали хату
[Профиль] [ЛС]

skorpionN ®

Пол:

Стаж: 1 год 8 месяцев

Сообщений: 584



Награды: 4 (Подробнее)

Mega Seeder 1 (Количество: 1) Mega Seeder 2 (Количество: 1) Mega Seeder 3 (Количество: 1)
Торрент-статистика

Создавать темы 06-Апр-2015 19:07 (спустя 4 часа)

[Цитировать]

Да мужской разговор не складывается. А ты чего надумал, безголовый slow
[Профиль] [ЛС]

KiruhaDelMar

Стаж: 1 год 8 месяцев

Сообщений: 246



Награды: Нет

Торрент-статистика

Создавать темы 07-Апр-2015 15:04 (спустя 19 часов)

[Цитировать]

В мужском разговоре не место таким предложениям paratrooper
книжки читай
[Профиль] [ЛС]
Кто просматривает тему:

Показать сообщения:    

Текущее время: Сегодня 08:29

Часовой пояс: GMT



Вы не можете начинать темы
Вы не можете отвечать на сообщения
Вы не можете редактировать свои сообщения
Вы не можете удалять свои сообщения
Вы не можете голосовать в опросах
Вы не можете прикреплять файлы к сообщениям
Вы не можете скачивать файлы