Пираты / Pirates / Hae-jeok: Ba-da-ro gan san-jeok (2014) HDTVRip-AVC от ExKinoRay | L2

 
Автор Сообщение

sergej644 ®

Пол:

Стаж: 4 года 11 месяцев

Сообщений: 6041

Откуда: Soviet Union



Награды: Нет

Торрент-статистика

Создавать темы 13-Ноя-2014 10:27

[Цитировать]

Информация о фильме
Название: Пираты
Оригинальное название: Pirates / Hae-jeok: Ba-da-ro gan san-jeok
Год выхода: 2014
Жанр: История, комедия, приключения
Режиссер: Сок Хун Ли
В ролях: Нам Гил Ким, Ё Чжин Сон, Хэ Чжин Ю, Кён Ён Ли, Тхэ У Ким, Чхоль Мин Пак, Вон Хэ Ким, Даль Хван Чо, Чжон Гын Син, Соль Ри Чхве, Даль Су О, И Кён Ли, Нэ Сан Ан, Хи Бон Чо, Сон Хва Чжон
О фильме: Фильм рассказывает о эпохе Чосон. Банда пиратов под предводительством Сон Е Чжин соперничает с бандой горных разбойников, спустившихся на море в поисках фортуны, во главе с Ким Нам Гилем. Их ждет охота за призраком кита, проглотившем корабль с сокровищами, самым ценным из которых является «королевская печать» — подарок китайского императора корейскому.
Выпущено: Южная Корея
Продолжительность: 02:09:33

Файл
Качество: HDTVRip (AVC)
Видео: MPEG-4 AVC, 1982 Кбит/с, 1024x434
Аудио: AC3, 2 ch, 192 Кбит/с
Продолжительность: 02:09:33
Перевод: Любительский двухголосый
Перевод: Эльза Нордж
Озвучивание: Ольга Гринтиева и Константин Романов

MI

General
Unique ID                                : 203693231626343326048199402577093603868 (0x993DE3B169106C0A8D8D60B30876321C)
Complete name                            : C:Piraty.2014.L2.HDTVRip.AVC.EXKinoRay.mkv
Format                                   : Matroska
Format version                           : Version 2
File size                                : 2.01 GiB
Duration                                 : 2h 9mn
Overall bit rate                         : 2 218 Kbps
Movie name                               : Piraty 2014 from ExKinoRay
Encoded date                             : UTC 2014-11-13 00:39:56
Writing application                      : mkvmerge v4.9.1 ('Ich will') built on Jul 11 2011 23:53:15
Writing library                          : libebml v1.2.1 + libmatroska v1.1.1
Video
ID                                       : 1
Format                                   : AVC
Format/Info                              : Advanced Video Codec
Format profile                           : High@L4.1
Format settings, CABAC                   : Yes
Format settings, ReFrames                : 9 frames
Codec ID                                 : V_MPEG4/ISO/AVC
Duration                                 : 2h 9mn
Bit rate                                 : 1 982 Kbps
Width                                    : 1 024 pixels
Height                                   : 434 pixels
Display aspect ratio                     : 2.35:1
Frame rate mode                          : Constant
Frame rate                               : 23.976 fps
Color space                              : YUV
Chroma subsampling                       : 4:2:0
Bit depth                                : 8 bits
Scan type                                : Progressive
Bits/(Pixel*Frame)                       : 0.186
Stream size                              : 1.79 GiB (89%)
Title                                    : Enigma-Vladislav71
Default                                  : Yes
Forced                                   : No
Audio
ID                                       : 2
Format                                   : AC-3
Format/Info                              : Audio Coding 3
Mode extension                           : CM (complete main)
Format settings, Endianness              : Big
Codec ID                                 : A_AC3
Duration                                 : 2h 9mn
Bit rate mode                            : Constant
Bit rate                                 : 192 Kbps
Channel(s)                               : 2 channels
Channel positions                        : Front: L R
Sampling rate                            : 48.0 KHz
Bit depth                                : 16 bits
Compression mode                         : Lossy
Delay relative to video                  : 31ms
Stream size                              : 178 MiB (9%)
Title                                    : L2 [GREEN TEA]
Language                                 : Russian
Default                                  : Yes
Forced                                   : No

Скриншоты

Релиз от:
Авторы релиза:
[Профиль] [ЛС]
Показать сообщения:    

Текущее время: Сегодня 14:52

Часовой пояс: GMT



Вы не можете начинать темы
Вы не можете отвечать на сообщения
Вы не можете редактировать свои сообщения
Вы не можете удалять свои сообщения
Вы не можете голосовать в опросах
Вы не можете прикреплять файлы к сообщениям
Вы не можете скачивать файлы