Пираты Эгейского моря / God loves caviar (2015) HDRip

 
Автор Сообщение

Russian Mafia ®

Пол:

Стаж: 2 года 4 месяца

Сообщений: 4249



Награды: 10 (Подробнее)

Top Releaser 4 (Количество: 1) Mega Seeder 2 (Количество: 1) За внесенный вклад в развитие сайта (Количество: 1)
Торрент-статистика

Создавать темы 14-Сен-2015 07:12

[Цитировать]

Пираты Эгейского моря / God loves caviar
Страна: Греция, Россия
Жанр: приключения, биография, история
Год выпуска: 2015
Продолжительность: 01:41:55
Перевод: Профессиональный (многоголосый закадровый) [Лицензия]
Cубтитры: нет
Оригинальная аудиодорожка: нет
Режиссер: Яннис Смарагдис / Yannis Smaragdis
В ролях: Себастьян Кох, Евгений Стычкин, Хуан Диего Ботто, Ольга Сутулова, Джон Клиз, Катрин Денёв, Акис Сакеллариу, Александра Сакеларопулу, Фотини Баксевани, Лакис Лазопулос
Описание: Фильм о реальных событиях, в центре которых находится Иоаннис Варвакис — один из самых великих иностранцев в российской истории. После обращения к «великой нации светловолосых» за помощью в освобождении своего народа от турецкого ига жизнь греческого рыбака меняется самым невероятным образом: полюбившись графу Орлову и Екатерине Великой, он обретает вторую родину, с головой погружается в культуру нашей страны, становится одним из самых богатых людей Европы и главных благотворителей российской империи, научившись добывать и экспортировать икру.
Сэмпл: http://multi-up.com/1066338
Качество видео: HDRip
Формат видео: AVI
Видео: 720 x 384 (1.85:1), XviD, 24.000 fps, ~ 1718 Kbps
Аудио: AC3, 48 kHz, 2 ch, 192 kbps

MediaInfo

General
Complete name : D:\Torrent\Pirati.Egeyskogo.morya.2015.P.HDRip.1400Mb.avi
Format : AVI
Format/Info : Audio Video Interleave
File size : 1.37 GiB
Duration : 1h 41mn
Overall bit rate : 1 919 Kbps
Writing application : VirtualDubMod 1.5.10.3 | www.virtualdub-fr.org || (build 2550/release)
Writing library : VirtualDubMod build 2550/release
Video
ID : 0
Format : MPEG-4 Visual
Format profile : Advanced Simple@L5
Format settings, BVOP : 2
Format settings, QPel : No
Format settings, GMC : No warppoints
Format settings, Matrix : Default (MPEG)
Codec ID : XVID
Codec ID/Hint : XviD
Duration : 1h 41mn
Bit rate : 1 718 Kbps
Width : 720 pixels
Height : 384 pixels
Display aspect ratio : 1.85:1
Frame rate : 24.000 fps
Color space : YUV
Chroma subsampling : 4:2:0
Bit depth : 8 bits
Scan type : Progressive
Compression mode : Lossy
Bits/(Pixel*Frame) : 0.259
Stream size : 1.22 GiB (90%)
Writing library : XviD 1.2.1 (UTC 2008-12-04)
Audio
ID : 1
Format : AC-3
Format/Info : Audio Coding 3
Mode extension : CM (complete main)
Format settings, Endianness : Big
Codec ID : 2000
Duration : 1h 41mn
Bit rate mode : Constant
Bit rate : 192 Kbps
Channel(s) : 2 channels
Channel positions : Front: L R
Sampling rate : 48.0 KHz
Compression mode : Lossy
Stream size : 140 MiB (10%)
Alignment : Split accross interleaves
Interleave, duration : 42 ms (1.00 video frame)
Interleave, preload duration : 500 ms

Скриншоты


[Профиль] [ЛС]
Кто просматривает тему:

Форум Тема Автор Размер
Rock (Рок) Мумий Тролль - Пиратские копии - 2015, MP3, 320 kbps достали все 153 MB
BBC BBC: Преступники Британии. Разбойники с большой дороги, пираты и мошенники / Britain's Outlaws. Highwaymen, Pirates and Rogues [серии 1-3 из 3] (Andy Hall, Matthew Thomas, Gerry Dawson) [201... skorpionN 5.42 GB
Demo, Alpha, Beta версии Life is Feudal: Forest Village [v0.9.4233] (2016) PC | Early Access | Пиратка Barbaq 215 MB
National Geographic NG: Осушить океан: затонувший город пиратов / Drain the Sunken Pirate City (Sophie Elwin Harris) [2017 г., Документальный, история, исследования, HDTVRip-AVC 720p] skorpionN 1.5 GB
История, биографии, религия и искусство Борис Воробьев – Пиратские хроники (2016) MP3 Swager 534 MB
Путешествия и приключения Даниэль Дефо - Всеобщая история пиратов (2015) MP3 Swager 342 MB
Фильмы 2014 года Драконы Нью-Йорка / Revenge of the Green Dragons (Вэй Кеунг Лау / Wai-Keung Lau, Эндрю Лу / Andrew Loo) [2014, США, Гонконг, боевик, драма, криминал, HDRip] MVO (Студия Пиратского дубляжа) TorrentFilm 1.37 GB
Отечественные мультфильмы Журнал Союзмультфильма № 2 / Чего Гитлер хочет / Бей фашистских пиратов / Бей врага на фронте и в тылу / Крепкое рукопожатие (Зинаида Брумберг, Александр Иванов, Валентина Брумберг, Ольга Ходатаева... TorrentFilm 139 MB
Показать сообщения:    

Текущее время: Сегодня 23:51

Часовой пояс: GMT



Вы не можете начинать темы
Вы не можете отвечать на сообщения
Вы не можете редактировать свои сообщения
Вы не можете удалять свои сообщения
Вы не можете голосовать в опросах
Вы не можете прикреплять файлы к сообщениям
Вы не можете скачивать файлы