Пираты темной воды / The Pirates of Dark Water [S01-03] (1991–1992) DVDRip | A

 
Автор Сообщение

Russian Mafia ®

Пол:

Стаж: 1 год 8 месяцев

Сообщений: 4247



Награды: 10 (Подробнее)

Mega Seeder 5 (Количество: 1) За внесенный вклад в развитие сайта (Количество: 1) Mega Seeder 4 (Количество: 1)
Торрент-статистика

Создавать темы 06-Окт-2015 07:07

[Цитировать]

Информация о фильме
Название: Пираты темной воды
Оригинальное название: The Pirates of Dark Water
Год выхода: 1991 – 1992
Жанр: мультфильм, фэнтези, боевик, приключения
Режиссер: Дон Ласк, Рэй Паттерсон, Пол Соммер
В ролях: Джоди Бенсон, Гектор Элизондо, Джордж Ньюберн, Фрэнк Уэлкер, Тим Карри, Брок Питерс, Питер Каллен,Ричард Готье, Аллан Лури, Лес Тремейн
Описание: В таинственном и полном опасностей водном мире планеты Мер бесстрашный 17-летний принц Рен должен спасти свое королевство от безжалостного повелителя пиратов Блота, отыскав легендарные тринадцать Сокровищ Правления.

Страна: США
Студия: Hanna-Barbera
Продолжительность: 21x ~ 22 мин
Перевод: Авторский (одноголосый закадровый) - Radamant
Файл
Формат: AVI
Качество: DVDRip
Видео: 608x464 (1.31:1), 23.976 fps, XviD MPEG-4 ~1790 kbps avg, 0.26 bit/pixel
Аудио №1: 48 kHz, MPEG Layer 3, 2 ch, ~320.00 kbps avg RUS
Аудио №2: 48 kHz, MPEG Layer 3, 2 ch, ~320.00 kbps avg ENG

Скриншоты:

MediaInfo:

Формат : AVI
Формат/Информация : Audio Video Interleave
Размер файла : 372 Мбайт
Продолжительность : 21 м.
Общий поток : 2385 Кбит/сек
Программа кодирования : VirtualDubMod 1.5.10.2 (build 2540/release)
Библиотека кодирования : VirtualDubMod build 2540/release
Видео
Идентификатор : 0
Формат : MPEG-4 Visual
Профиль формата : Advanced Simple@L5
Параметр BVOP формата : 1
Параметр QPel формата : Нет
Параметр GMC формата : Без точки перехода
Параметр матрицы формата : Выборочная
Идентификатор кодека : XVID
Идентификатор кодека/Подсказка : XviD
Продолжительность : 21 м.
Битрейт : 1731 Кбит/сек
Ширина : 608 пикс.
Высота : 464 пикс.
Соотношение сторон : 4:3
Частота кадров : 23,976 кадр/сек
Цветовое пространство : YUV
Подвыборка цветности : 4:2:0
Битовая глубина : 8 бит
Тип развёртки : Прогрессивная
Метод сжатия : С потерями
Бит/(Пиксели*Кадры) : 0.256
Размер потока : 270 Мбайт (73%)
Библиотека кодирования : XviD 58
Аудио #1
Идентификатор : 1
Формат : MPEG Audio
Версия формата : Version 1
Профиль формата : Layer 3
Режим : Joint stereo
Расширение режима : MS Stereo
Идентификатор кодека : 55
Идентификатор кодека/Подсказка : MP3
Продолжительность : 21 м.
Вид битрейта : Постоянный
Битрейт : 320 Кбит/сек
Каналы : 2 канала
Частота : 48,0 КГц
Метод сжатия : С потерями
Размер потока : 50,0 Мбайт (13%)
Выравнивание : Соединение по промежуткам
Продолжительность промежутка : 42 мс. (1,00 видеокадр)
Время предзагрузки промежутка : 504 ms
Библиотека кодирования : LAME3.97ЄЄЄЄЄЄЄЄЄЄЄЄ
Аудио #2
Идентификатор : 2
Формат : MPEG Audio
Версия формата : Version 1
Профиль формата : Layer 3
Режим : Joint stereo
Расширение режима : MS Stereo
Идентификатор кодека : 55
Идентификатор кодека/Подсказка : MP3
Продолжительность : 21 м.
Вид битрейта : Постоянный
Битрейт : 320 Кбит/сек
Каналы : 2 канала
Частота : 48,0 КГц
Метод сжатия : С потерями
Размер потока : 50,0 Мбайт (13%)
Выравнивание : Соединение по промежуткам
Продолжительность промежутка : 42 мс. (1,00 видеокадр)
Время предзагрузки промежутка : 504 ms
[Профиль] [ЛС]
Показать сообщения:    

Текущее время: Сегодня 00:05

Часовой пояс: GMT



Вы не можете начинать темы
Вы не можете отвечать на сообщения
Вы не можете редактировать свои сообщения
Вы не можете удалять свои сообщения
Вы не можете голосовать в опросах
Вы не можете прикреплять файлы к сообщениям
Вы не можете скачивать файлы