Пираты Карибского моря: Сундук мертвеца / Pirates of the Caribbean: Dead Man\'s Chest (Гор Вербински / Gore Verbinski) [2006, США, фэнтези, боевик, приключения, DVB] [Fullscreen] Dub

 
Автор Сообщение

TorrentFilm ®

Пол:

Стаж: 1 год 11 месяцев

Сообщений: 7741



Награды: Нет

Торрент-статистика

Создавать темы 17-Мар-2016 00:08

[Цитировать]

Пираты Карибского моря: Сундук мертвеца /
Pirates of the Caribbean: Dead Man's Chest / Fullscreen

Страна: США
Жанр: фэнтези, боевик, приключения
Год выпуска: 2006
Продолжительность: 02:15:24 (без финальных титров)
Перевод: Профессиональный (дублированный)
Cубтитры: нет
Оригинальная аудиодорожка: нет
Режиссер: Гор Вербински / Gore Verbinski
В ролях: Джонни Депп (Jack Sparrow,), Орландо Блум (Will Turner), Кира Найтли (Elizabeth Swann), Джек Девенпорт (Norrington), Билл Найи (Davy Jones), Джонатан Прайс (Governor Weatherby Swann), Ли Аренберг (Pintel), Маккензи Крук (Ragetti), Кевин МакНэлли (Gibbs, (as Kevin R. McNally)), Дэвид Бэйли (Cotton)
Описание: Вновь оказавшись в ирреальном мире, лихой капитан Джек Воробей неожиданно узнает, что является должником легендарного капитана «Летучего Голландца» Дэйви Джонса. Джек должен в кратчайшие сроки решить эту проблему, иначе ему грозит вечное проклятие и рабское существование после смерти. Вдобавок ко всему, срывается свадьба Уилла Тернера и Элизабет Суонн, которые вынуждены составить Джеку компанию в его злоключениях…
Доп. информация: Собственная запись с канала СТС. От BD/DVD отличается иным наполнением кадра. Присутствуют рекламные надписи.
http://screenshotcomparison.com/comparison/165419
Сэмпл: http://multi-up.com/1093065
Качество видео: DVB
Формат видео: TS
Видео: AVC, 720x576, 4:3, 25 fps, 2736 Kbps
Аудио: Русский (mpa, 2 ch), 48000 Hz, 192 Kbps

MediaInfo

Общее
Идентификатор : 1 (0x1)
Полное имя : F:\Downloads\PotC Dead Man's Chest Fullscreen.ts
Формат : MPEG-TS
Размер файла : 2,91 Гбайт
Продолжительность : 2 ч. 15 м.
Режим общего битрейта : Переменный
Общий поток : 3082 Кбит/сек
Видео
Идентификатор : 2031 (0x7EF)
Идентификатор меню : 2030 (0x7EE)
Формат : AVC
Формат/Информация : Advanced Video Codec
Профиль формата : Main@L3
Параметр CABAC формата : Да
Параметр ReFrames формата : 3 кадра
Параметр GOP формата : M=4, N=28
Идентификатор кодека : 27
Продолжительность : 2 ч. 15 м.
Битрейт : 2736 Кбит/сек
Ширина : 720 пикселей
Высота : 576 пикселей
Соотношение сторон : 4:3
Частота кадров : 25,000 кадров/сек
Стандарт вещания : Component
Цветовое пространство : YUV
Субдискретизация насыщенности : 4:2:0
Битовая глубина : 8 бит
Тип развёртки : Чересстрочная
Метод сохранения типа развёртки : Раздельные поля
Порядок развёртки : Верхнее поле первое
Бит/(Пиксели*Кадры) : 0.264
Размер потока : 2,59 Гбайт (89%)
Цветовой диапазон : Limited
Основные цвета : BT.601 PAL
Характеристики трансфера : BT.470 System B, BT.470 System G
Коэффициенты матрицы : BT.601
Аудио
Идентификатор : 2032 (0x7F0)
Идентификатор меню : 2030 (0x7EE)
Формат : MPEG Audio
Версия формата : Version 1
Профиль формата : Layer 2
Идентификатор кодека : 3
Продолжительность : 2 ч. 15 м.
Вид битрейта : Постоянный
Битрейт : 192 Кбит/сек
Каналы : 2 канала
Частота : 48,0 КГц
Метод сжатия : С потерями
Размер потока : 186 Мбайт (6%)
Язык : English

Скриншот c названием фильма

Скриншоты

[Профиль] [ЛС]
Показать сообщения:    

Текущее время: Сегодня 20:07

Часовой пояс: GMT



Вы не можете начинать темы
Вы не можете отвечать на сообщения
Вы не можете редактировать свои сообщения
Вы не можете удалять свои сообщения
Вы не можете голосовать в опросах
Вы не можете прикреплять файлы к сообщениям
Вы не можете скачивать файлы