Пираты Карибского моря: Сундук мертвеца / Pirates of the Caribbean: Dead Man\'s Chest (Гор Вербински / Gore Verbinski) [2006, США, фэнтези, боевик, приключения, DVB] [Fullscreen] Dub

 
Автор Сообщение

TorrentFilm ®

Пол:

Стаж: 2 года 7 месяцев

Сообщений: 7764



Награды: Нет

Торрент-статистика

Создавать темы 17-Мар-2016 00:08

[Цитировать]

Пираты Карибского моря: Сундук мертвеца /
Pirates of the Caribbean: Dead Man's Chest / Fullscreen

Страна: США
Жанр: фэнтези, боевик, приключения
Год выпуска: 2006
Продолжительность: 02:15:24 (без финальных титров)
Перевод: Профессиональный (дублированный)
Cубтитры: нет
Оригинальная аудиодорожка: нет
Режиссер: Гор Вербински / Gore Verbinski
В ролях: Джонни Депп (Jack Sparrow,), Орландо Блум (Will Turner), Кира Найтли (Elizabeth Swann), Джек Девенпорт (Norrington), Билл Найи (Davy Jones), Джонатан Прайс (Governor Weatherby Swann), Ли Аренберг (Pintel), Маккензи Крук (Ragetti), Кевин МакНэлли (Gibbs, (as Kevin R. McNally)), Дэвид Бэйли (Cotton)
Описание: Вновь оказавшись в ирреальном мире, лихой капитан Джек Воробей неожиданно узнает, что является должником легендарного капитана «Летучего Голландца» Дэйви Джонса. Джек должен в кратчайшие сроки решить эту проблему, иначе ему грозит вечное проклятие и рабское существование после смерти. Вдобавок ко всему, срывается свадьба Уилла Тернера и Элизабет Суонн, которые вынуждены составить Джеку компанию в его злоключениях…
Доп. информация: Собственная запись с канала СТС. От BD/DVD отличается иным наполнением кадра. Присутствуют рекламные надписи.
http://screenshotcomparison.com/comparison/165419
Сэмпл: http://multi-up.com/1093065
Качество видео: DVB
Формат видео: TS
Видео: AVC, 720x576, 4:3, 25 fps, 2736 Kbps
Аудио: Русский (mpa, 2 ch), 48000 Hz, 192 Kbps

MediaInfo

Общее
Идентификатор : 1 (0x1)
Полное имя : F:\Downloads\PotC Dead Man's Chest Fullscreen.ts
Формат : MPEG-TS
Размер файла : 2,91 Гбайт
Продолжительность : 2 ч. 15 м.
Режим общего битрейта : Переменный
Общий поток : 3082 Кбит/сек
Видео
Идентификатор : 2031 (0x7EF)
Идентификатор меню : 2030 (0x7EE)
Формат : AVC
Формат/Информация : Advanced Video Codec
Профиль формата : Main@L3
Параметр CABAC формата : Да
Параметр ReFrames формата : 3 кадра
Параметр GOP формата : M=4, N=28
Идентификатор кодека : 27
Продолжительность : 2 ч. 15 м.
Битрейт : 2736 Кбит/сек
Ширина : 720 пикселей
Высота : 576 пикселей
Соотношение сторон : 4:3
Частота кадров : 25,000 кадров/сек
Стандарт вещания : Component
Цветовое пространство : YUV
Субдискретизация насыщенности : 4:2:0
Битовая глубина : 8 бит
Тип развёртки : Чересстрочная
Метод сохранения типа развёртки : Раздельные поля
Порядок развёртки : Верхнее поле первое
Бит/(Пиксели*Кадры) : 0.264
Размер потока : 2,59 Гбайт (89%)
Цветовой диапазон : Limited
Основные цвета : BT.601 PAL
Характеристики трансфера : BT.470 System B, BT.470 System G
Коэффициенты матрицы : BT.601
Аудио
Идентификатор : 2032 (0x7F0)
Идентификатор меню : 2030 (0x7EE)
Формат : MPEG Audio
Версия формата : Version 1
Профиль формата : Layer 2
Идентификатор кодека : 3
Продолжительность : 2 ч. 15 м.
Вид битрейта : Постоянный
Битрейт : 192 Кбит/сек
Каналы : 2 канала
Частота : 48,0 КГц
Метод сжатия : С потерями
Размер потока : 186 Мбайт (6%)
Язык : English

Скриншот c названием фильма

Скриншоты

[Профиль] [ЛС]
Кто просматривает тему:

Форум Тема Автор Размер
Rock (Рок) Мумий Тролль - Пиратские копии - 2015, MP3, 320 kbps достали все 153 MB
BBC BBC: Преступники Британии. Разбойники с большой дороги, пираты и мошенники / Britain's Outlaws. Highwaymen, Pirates and Rogues [серии 1-3 из 3] (Andy Hall, Matthew Thomas, Gerry Dawson) [201... skorpionN 5.42 GB
Demo, Alpha, Beta версии Life is Feudal: Forest Village [v0.9.4233] (2016) PC | Early Access | Пиратка Barbaq 215 MB
National Geographic NG: Осушить океан: затонувший город пиратов / Drain the Sunken Pirate City (Sophie Elwin Harris) [2017 г., Документальный, история, исследования, HDTVRip-AVC 720p] skorpionN 1.5 GB
История, биографии, религия и искусство Борис Воробьев – Пиратские хроники (2016) MP3 Swager 534 MB
Путешествия и приключения Даниэль Дефо - Всеобщая история пиратов (2015) MP3 Swager 342 MB
Фильмы 2014 года Драконы Нью-Йорка / Revenge of the Green Dragons (Вэй Кеунг Лау / Wai-Keung Lau, Эндрю Лу / Andrew Loo) [2014, США, Гонконг, боевик, драма, криминал, HDRip] MVO (Студия Пиратского дубляжа) TorrentFilm 1.37 GB
Отечественные мультфильмы Журнал Союзмультфильма № 2 / Чего Гитлер хочет / Бей фашистских пиратов / Бей врага на фронте и в тылу / Крепкое рукопожатие (Зинаида Брумберг, Александр Иванов, Валентина Брумберг, Ольга Ходатаева... TorrentFilm 139 MB
Показать сообщения:    

Текущее время: Сегодня 06:32

Часовой пояс: GMT



Вы не можете начинать темы
Вы не можете отвечать на сообщения
Вы не можете редактировать свои сообщения
Вы не можете удалять свои сообщения
Вы не можете голосовать в опросах
Вы не можете прикреплять файлы к сообщениям
Вы не можете скачивать файлы