Пираты Карибского моря: На краю Света / Pirates of the Caribbean: At World\'s End (Гор Вербински / Gore Verbinski) [2007, США, фэнтези, боевик, приключения, HDTVRip] [Open Matte] Dub + Eng + Sub (Rus, Eng)

 
Автор Сообщение

TorrentFilm ®

Пол:

Стаж: 2 года 7 месяцев

Сообщений: 7764



Награды: Нет

Торрент-статистика

Создавать темы 20-Ноя-2015 00:09

[Цитировать]

Пираты Карибского моря - На краю Света
Pirates of the Caribbean: At World's End

«At the End of the World, the Adventure Begins»
-Страна: США
Жанр: фэнтези, боевик, приключения
Год выпуска: 2007
Продолжительность: 02:38:56-Перевод: Профессиональный (дублированный)
Cубтитры: Есть (русские, английские)
Оригинальная аудиодорожка: Английский-Режиссер: Гор Вербински / Gore Verbinski-В ролях: Джонни Депп /Johnny Depp/, Орландо Блум /Orlando Bloom/, Кира Найтли /Keira Knightley/, Джеффри Раш /Geoffrey Rush/, Джонатан Прайс /Jonathan Pryce/, Билл Найи /Bill Nighy/-Описание: Новые приключения Джека Воробья и его друзей Уилла Тернера и Элизабет Суонн. На этот раз Уиллу и Элизабет придется объединиться с самим Капитаном Барбоссой для того, чтобы отправиться на край света и спасти своего друга — Джека. Ситуация осложняется тем, что Элизабет попадает к сингапурским пиратам…-Доп. информация:

Автор рипа: MECHANICAL ENGINEER
-
Качество видео: HDTVRip
Формат видео: AVI
Видео: 704 x 400; 23.976 fps; 1579 kbps; 0.23 bit/pixel
Аудио: 48 kHz; 5.1 ch; 384.00 kbps; AC3 Dolby Digital
Размер файла: 2239.71 Mb (1/2 DVD5)
Аудио 2: 48 kHz, AC3, 5.1 ch, 384 kbps | Английкий | отдельно
Формат субтитров: softsub (SRT) : Русские, Английские. | отдельно

MediaInfo

Format                                   : AVI
Format/Info                              : Audio Video Interleave
Format profile                           : OpenDML
File size                                : 2.19 GiB
Duration                                 : 2h 38mn
Overall bit rate                         : 1 970 Kbps
Movie name                               : Пираты Карибского моря: На краю Света / Pirates of the Caribbean: At World's End (2007)
Director                                 : MECHANICAL ENGINEER (HDTVRip 720p] [Open Matte]
Genre                                    : Фэнтези,боевик,приключения
Writing application                      : VirtualDubMod 1.5.10.3 | www.virtualdub-fr.org || (build 2550/release)
Original source form/Name                : Home Video
Copyright                                : США
Comment                                  : 14.11.2015
Video
ID                                       : 0
Format                                   : MPEG-4 Visual
Format profile                           : Advanced Simple@L5
Format settings, BVOP                    : 1
Format settings, QPel                    : No
Format settings, GMC                     : No warppoints
Format settings, Matrix                  : Custom
Codec ID                                 : XVID
Codec ID/Hint                            : XviD
Duration                                 : 2h 38mn
Bit rate                                 : 1 574 Kbps
Width                                    : 704 pixels
Height                                   : 400 pixels
Display aspect ratio                     : 16:9
Frame rate                               : 23.976 fps
Color space                              : YUV
Chroma subsampling                       : 4:2:0
Bit depth                                : 8 bits
Scan type                                : Progressive
Compression mode                         : Lossy
Bits/(Pixel*Frame)                       : 0.233
Stream size                              : 1.75 GiB (80%)
Writing library                          : XviD 65
Audio
ID                                       : 1
Format                                   : AC-3
Format/Info                              : Audio Coding 3
Mode extension                           : CM (complete main)
Format settings, Endianness              : Big
Codec ID                                 : 2000
Duration                                 : 2h 38mn
Bit rate mode                            : Constant
Bit rate                                 : 384 Kbps
Channel(s)                               : 6 channels
Channel positions                        : Front: L C R, Side: L R, LFE
Sampling rate                            : 48.0 KHz
Bit depth                                : 16 bits
Compression mode                         : Lossy
Stream size                              : 437 MiB (19%)
Alignment                                : Split accross interleaves
Interleave, duration                     : 42 ms (1.00 video frame)
Interleave, preload duration             : 500 ms

Скриншоты (превью - увеличение по клику):





ПРИЯТНОГО ПРОСМОТРА!
[Профиль] [ЛС]
Кто просматривает тему:

Форум Тема Автор Размер
Rock (Рок) Мумий Тролль - Пиратские копии - 2015, MP3, 320 kbps достали все 153 MB
BBC BBC: Преступники Британии. Разбойники с большой дороги, пираты и мошенники / Britain's Outlaws. Highwaymen, Pirates and Rogues [серии 1-3 из 3] (Andy Hall, Matthew Thomas, Gerry Dawson) [201... skorpionN 5.42 GB
Demo, Alpha, Beta версии Life is Feudal: Forest Village [v0.9.4233] (2016) PC | Early Access | Пиратка Barbaq 215 MB
National Geographic NG: Осушить океан: затонувший город пиратов / Drain the Sunken Pirate City (Sophie Elwin Harris) [2017 г., Документальный, история, исследования, HDTVRip-AVC 720p] skorpionN 1.5 GB
История, биографии, религия и искусство Борис Воробьев – Пиратские хроники (2016) MP3 Swager 534 MB
Путешествия и приключения Даниэль Дефо - Всеобщая история пиратов (2015) MP3 Swager 342 MB
Фильмы 2014 года Драконы Нью-Йорка / Revenge of the Green Dragons (Вэй Кеунг Лау / Wai-Keung Lau, Эндрю Лу / Andrew Loo) [2014, США, Гонконг, боевик, драма, криминал, HDRip] MVO (Студия Пиратского дубляжа) TorrentFilm 1.37 GB
Отечественные мультфильмы Журнал Союзмультфильма № 2 / Чего Гитлер хочет / Бей фашистских пиратов / Бей врага на фронте и в тылу / Крепкое рукопожатие (Зинаида Брумберг, Александр Иванов, Валентина Брумберг, Ольга Ходатаева... TorrentFilm 139 MB
Показать сообщения:    

Текущее время: Сегодня 20:49

Часовой пояс: GMT



Вы не можете начинать темы
Вы не можете отвечать на сообщения
Вы не можете редактировать свои сообщения
Вы не можете удалять свои сообщения
Вы не можете голосовать в опросах
Вы не можете прикреплять файлы к сообщениям
Вы не можете скачивать файлы